  0
SECTION
  2
HEADER
  9
$ACADVER
  1
AC1014
  9
$ACADMAINTVER
 70
     9
  9
$DWGCODEPAGE
  3
ANSI_932
  9
$INSBASE
 10
0.0
 20
0.0
 30
0.0
  9
$EXTMIN
 10
79.99999159999766
 20
0.9999999999999413
 30
0.0
  9
$EXTMAX
 10
2024.333324933331
 20
1345.0
 30
0.0
  9
$LIMMIN
 10
0.0
 20
0.0
  9
$LIMMAX
 10
2099.9999916
 20
1484.999999999999
  9
$ORTHOMODE
 70
     0
  9
$REGENMODE
 70
     1
  9
$FILLMODE
 70
     1
  9
$QTEXTMODE
 70
     0
  9
$MIRRTEXT
 70
     0
  9
$DRAGMODE
 70
     2
  9
$LTSCALE
 40
25.0
  9
$OSMODE
 70
    39
  9
$ATTMODE
 70
     1
  9
$TEXTSIZE
 40
15.0
  9
$TRACEWID
 40
1.0
  9
$TEXTSTYLE
  7
STANDARD
  9
$CLAYER
  8
SUNPOU
  9
$CELTYPE
  6
BYLAYER
  9
$CECOLOR
 62
   256
  9
$CELTSCALE
 40
1.0
  9
$DELOBJ
 70
     1
  9
$DISPSILH
 70
     0
  9
$DIMSCALE
 40
5.0
  9
$DIMASZ
 40
2.5
  9
$DIMEXO
 40
1.0
  9
$DIMDLI
 40
6.0
  9
$DIMRND
 40
0.0
  9
$DIMDLE
 40
0.0
  9
$DIMEXE
 40
1.0
  9
$DIMTP
 40
0.0
  9
$DIMTM
 40
0.0
  9
$DIMTXT
 40
3.0
  9
$DIMCEN
 40
0.0
  9
$DIMTSZ
 40
0.0
  9
$DIMTOL
 70
     0
  9
$DIMLIM
 70
     0
  9
$DIMTIH
 70
     0
  9
$DIMTOH
 70
     0
  9
$DIMSE1
 70
     0
  9
$DIMSE2
 70
     0
  9
$DIMTAD
 70
     3
  9
$DIMZIN
 70
     8
  9
$DIMBLK
  1

  9
$DIMASO
 70
     1
  9
$DIMSHO
 70
     1
  9
$DIMPOST
  1

  9
$DIMAPOST
  1

  9
$DIMALT
 70
     0
  9
$DIMALTD
 70
     2
  9
$DIMALTF
 40
25.4
  9
$DIMLFAC
 40
1.0
  9
$DIMTOFL
 70
     1
  9
$DIMTVP
 40
0.0
  9
$DIMTIX
 70
     0
  9
$DIMSOXD
 70
     0
  9
$DIMSAH
 70
     1
  9
$DIMBLK1
  1
ARROW
  9
$DIMBLK2
  1
ARROW
  9
$DIMSTYLE
  2
IMCADLT
  9
$DIMCLRD
 70
     0
  9
$DIMCLRE
 70
     0
  9
$DIMCLRT
 70
     0
  9
$DIMTFAC
 40
0.45
  9
$DIMGAP
 40
1.0
  9
$DIMJUST
 70
     0
  9
$DIMSD1
 70
     0
  9
$DIMSD2
 70
     0
  9
$DIMTOLJ
 70
     1
  9
$DIMTZIN
 70
     8
  9
$DIMALTZ
 70
     0
  9
$DIMALTTZ
 70
     0
  9
$DIMFIT
 70
     1
  9
$DIMUPT
 70
     0
  9
$DIMUNIT
 70
     2
  9
$DIMDEC
 70
     2
  9
$DIMTDEC
 70
     2
  9
$DIMALTU
 70
     2
  9
$DIMALTTD
 70
     2
  9
$DIMTXSTY
  7
STANDARD
  9
$DIMAUNIT
 70
     0
  9
$LUNITS
 70
     2
  9
$LUPREC
 70
     2
  9
$SKETCHINC
 40
1.0
  9
$FILLETRAD
 40
15.0
  9
$AUNITS
 70
     0
  9
$AUPREC
 70
     2
  9
$MENU
  1
acad
  9
$ELEVATION
 40
0.0
  9
$PELEVATION
 40
0.0
  9
$THICKNESS
 40
0.0
  9
$LIMCHECK
 70
     0
  9
$BLIPMODE
 70
     0
  9
$CHAMFERA
 40
0.0
  9
$CHAMFERB
 40
0.0
  9
$CHAMFERC
 40
20.0
  9
$CHAMFERD
 40
0.0
  9
$SKPOLY
 70
     0
  9
$TDCREATE
 40
2452703.606793553
  9
$TDUPDATE
 40
2453168.563951932
  9
$TDINDWG
 40
3.2738587153
  9
$TDUSRTIMER
 40
3.2738587153
  9
$USRTIMER
 70
     1
  9
$ANGBASE
 50
0.0
  9
$ANGDIR
 70
     0
  9
$PDMODE
 70
     3
  9
$PDSIZE
 40
0.0
  9
$PLINEWID
 40
0.0
  9
$COORDS
 70
     1
  9
$SPLFRAME
 70
     0
  9
$SPLINETYPE
 70
     6
  9
$SPLINESEGS
 70
     8
  9
$ATTDIA
 70
     0
  9
$ATTREQ
 70
     1
  9
$HANDLING
 70
 10241
  9
$HANDSEED
  5
5914
  9
$SURFTAB1
 70
     6
  9
$SURFTAB2
 70
     6
  9
$SURFTYPE
 70
     6
  9
$SURFU
 70
     6
  9
$SURFV
 70
     6
  9
$UCSNAME
  2

  9
$UCSORG
 10
0.0
 20
0.0
 30
0.0
  9
$UCSXDIR
 10
1.0
 20
0.0
 30
0.0
  9
$UCSYDIR
 10
0.0
 20
1.0
 30
0.0
  9
$PUCSNAME
  2

  9
$PUCSORG
 10
0.0
 20
0.0
 30
0.0
  9
$PUCSXDIR
 10
1.0
 20
0.0
 30
0.0
  9
$PUCSYDIR
 10
0.0
 20
1.0
 30
0.0
  9
$USERI1
 70
     3
  9
$USERI2
 70
     1
  9
$USERI3
 70
     5
  9
$USERI4
 70
     1
  9
$USERI5
 70
     0
  9
$USERR1
 40
5.0
  9
$USERR2
 40
3.0
  9
$USERR3
 40
3.0
  9
$USERR4
 40
2.5
  9
$USERR5
 40
6.0
  9
$WORLDVIEW
 70
     1
  9
$SHADEDGE
 70
     3
  9
$SHADEDIF
 70
    70
  9
$TILEMODE
 70
     1
  9
$MAXACTVP
 70
    48
  9
$PINSBASE
 10
0.0
 20
0.0
 30
0.0
  9
$PLIMCHECK
 70
     0
  9
$PEXTMIN
 10
1.000000000000000E+20
 20
1.000000000000000E+20
 30
1.000000000000000E+20
  9
$PEXTMAX
 10
-1.000000000000000E+20
 20
-1.000000000000000E+20
 30
-1.000000000000000E+20
  9
$PLIMMIN
 10
-6.350006103515625
 20
-6.349999904632568
  9
$PLIMMAX
 10
273.0499877929687
 20
209.5499939918517
  9
$UNITMODE
 70
     0
  9
$VISRETAIN
 70
     0
  9
$PLINEGEN
 70
     0
  9
$PSLTSCALE
 70
     1
  9
$TREEDEPTH
 70
  3020
  9
$PICKSTYLE
 70
     1
  9
$CMLSTYLE
  2
STANDARD
  9
$CMLJUST
 70
     0
  9
$CMLSCALE
 40
20.0
  9
$PROXYGRAPHICS
 70
     1
  9
$MEASUREMENT
 70
     1
  0
ENDSEC
  0
SECTION
  2
CLASSES
  0
CLASS
  1
LWPOLYLINE
  2
AcDbPolyline
  3
AutoCAD 2000
 90
        0
280
     0
281
     1
  0
CLASS
  1
ACDBDICTIONARYWDFLT
  2
AcDbDictionaryWithDefault
  3
AutoCAD 2000
 90
        0
280
     0
281
     0
  0
CLASS
  1
ACDBPLACEHOLDER
  2
AcDbPlaceHolder
  3
AutoCAD 2000
 90
        0
280
     0
281
     0
  0
CLASS
  1
LAYOUT
  2
AcDbLayout
  3
AutoCAD 2000
 90
        0
280
     0
281
     0
  0
CLASS
  1
LONG_TRANSACTION
  2
AcDbLongTransaction
  3
AutoCAD 2000
 90
        0
280
     0
281
     0
  0
CLASS
  1
LWPOLYLINE
  2
AcDbPolyline
  3
AutoCAD 2000
 90
        0
280
     0
281
     1
  0
CLASS
  1
HATCH
  2
AcDbHatch
  3
AutoCAD 2000
 90
        0
280
     0
281
     1
  0
CLASS
  1
XRECORD
  2
AcDbXrecord
  3
AutoCAD 2000
 90
        0
280
     0
281
     0
  0
CLASS
  1
LONG_TRANSACTION
  2
AcDbLongTransaction
  3
AutoCAD 2000
 90
        0
280
     0
281
     0
  0
CLASS
  1
LWPOLYLINE
  2
AcDbPolyline
  3
AutoCAD 2000
 90
        0
280
     0
281
     1
  0
CLASS
  1
HATCH
  2
AcDbHatch
  3
AutoCAD 2000
 90
        0
280
     0
281
     1
  0
CLASS
  1
XRECORD
  2
AcDbXrecord
  3
AutoCAD 2000
 90
        0
280
     0
281
     0
  0
CLASS
  1
LONG_TRANSACTION
  2
AcDbLongTransaction
  3
AutoCAD 2000
 90
        0
280
     0
281
     0
  0
CLASS
  1
LWPOLYLINE
  2
AcDbPolyline
  3
AutoCAD 2000
 90
        0
280
     0
281
     1
  0
CLASS
  1
HATCH
  2
AcDbHatch
  3
AutoCAD 2000
 90
        0
280
     0
281
     1
  0
CLASS
  1
XRECORD
  2
AcDbXrecord
  3
AutoCAD 2000
 90
        0
280
     0
281
     0
  0
CLASS
  1
LONG_TRANSACTION
  2
AcDbLongTransaction
  3
AutoCAD 2000
 90
        0
280
     0
281
     0
  0
CLASS
  1
LWPOLYLINE
  2
AcDbPolyline
  3
AutoCAD 2000
 90
        0
280
     0
281
     1
  0
CLASS
  1
HATCH
  2
AcDbHatch
  3
AutoCAD 2000
 90
        0
280
     0
281
     1
  0
CLASS
  1
XRECORD
  2
AcDbXrecord
  3
AutoCAD 2000
 90
        0
280
     0
281
     0
  0
CLASS
  1
LONG_TRANSACTION
  2
AcDbLongTransaction
  3
AutoCAD 2000
 90
        0
280
     0
281
     0
  0
CLASS
  1
LWPOLYLINE
  2
AcDbPolyline
  3
AutoCAD 2000
 90
        0
280
     0
281
     1
  0
CLASS
  1
HATCH
  2
AcDbHatch
  3
AutoCAD 2000
 90
        0
280
     0
281
     1
  0
CLASS
  1
XRECORD
  2
AcDbXrecord
  3
AutoCAD 2000
 90
        0
280
     0
281
     0
  0
CLASS
  1
ACME_DOCUMENT
  2
AcMeDbDoc
  3
AcMeServices
 90
        0
280
     0
281
     0
  0
CLASS
  1
ACMESCOPE
  2
AcMeScope
  3
AcMeServices
 90
        0
280
     0
281
     0
  0
CLASS
  1
ACMECOMMANDHISTORY
  2
AcMeCommandHistory
  3
AcMeServices
 90
        0
280
     0
281
     0
  0
CLASS
  1
ACIMSYSVARMAN
  2
AcImSysVarManager
  3
AcMeServices
 90
        0
280
     0
281
     0
  0
CLASS
  1
ACIMREALSYSVAR
  2
AcImRealSysVar
  3
AcMeServices
 90
        0
280
     0
281
     0
  0
CLASS
  1
ACIMINTSYSVAR
  2
AcImIntSysVar
  3
AcMeServices
 90
        0
280
     0
281
     0
  0
CLASS
  1
ACMEDRAWINGMAN
  2
AcMeDrawingMan
  3
AcMeServices
 90
        0
280
     0
281
     0
  0
CLASS
  1
ACMEVIEW
  2
AcMeView
  3
AcMeServices
 90
        0
280
     0
281
     0
  0
CLASS
  1
ACDBENTITYCACHE
  2
AcMeEntityCache
  3
AcMeServices
 90
        0
280
     0
281
     0
  0
CLASS
  1
GSMANAGER
  2
AcMeGSManager
  3
AcMeServices
 90
        0
280
     0
281
     0
  0
CLASS
  1
AMDTINTERNALREACTOR
  2
AmdtInternalReactor
  3
AcMeServices
 90
        0
280
     0
281
     0
  0
CLASS
  1
ACMESTATEMGR
  2
AcMeStateMgr
  3
AcMeServices
 90
        0
280
     0
281
     0
  0
CLASS
  1
ACGREFMASTER
  2
AcGrefMaster
  3
AcAttribServices
 90
        0
280
     0
281
     0
  0
CLASS
  1
ACME_DATABASE
  2
AcMeDbDatabase
  3
AcMeServices
 90
        0
280
     0
281
     0
  0
CLASS
  1
ACRFINSADJUSTERMGR
  2
AcRfInsAdjusterMgr
  3
AcMeServices
 90
        0
280
     0
281
     0
  0
CLASS
  1
ACGREFACADMASTER
  2
AcGrefacadMaster
  3
AcGrefServices
 90
        0
280
     0
281
     0
  0
CLASS
  1
AMIMASTER
  2
AmiMaster
  3
AmiServices
 90
        0
280
     0
281
     0
  0
CLASS
  1
AMGSETTINGSOBJ
  2
AmgSettingsObj
  3
"AcadM|Product Description: AutoCAD Mechanical 2000|Company: Autodesk"
 90
        0
280
     0
281
     0
  0
CLASS
  1
ACMDATADICTIONARY
  2
AcmDataDictionary
  3
"AcmSymBB|Product Description: AutoCAD Mechanical 2000|Company: Autodesk"
 90
        0
280
     0
281
     0
  0
CLASS
  1
ACMDATAENTRYBLOCK
  2
AcmDataEntryBlock
  3
"AcmSymBB|Product Description: AutoCAD Mechanical 2000|Company: Autodesk"
 90
        0
280
     0
281
     0
  0
CLASS
  1
ACIMSTRSYSVAR
  2
AcImStrSysVar
  3
AcMeServices
 90
        0
280
     0
281
     0
  0
CLASS
  1
ACMSTANDARDISO
  2
AcmStandardISO
  3
"Amdt_StdImp|Product Description: AutoCAD Mechanical 2000|Company: Autodesk"
 90
        0
280
     0
281
     0
  0
CLASS
  1
AMGOBJPROPCFG
  2
AmgObjPropCfg
  3
"AmgLay|Product Description: AutoCAD Mechanical 2000|Company: Autodesk"
 90
        1
280
     0
281
     0
  0
CLASS
  1
AMDTEDGESTANDARDISO
  2
AmdtEdgeStdISO
  3
"Amdt_StdImp|Product Description: AutoCAD Mechanical 2000|Company: Autodesk"
 90
        0
280
     0
281
     0
  0
CLASS
  1
ACMSURFSTANDARDISO
  2
AcmSurfTextStdISO
  3
"Amdt_StdImp|Product Description: AutoCAD Mechanical 2000|Company: Autodesk"
 90
        0
280
     0
281
     0
  0
CLASS
  1
ACMFCFSTANDARDISO
  2
AcmFCFStdISO
  3
"Amdt_StdImp|Product Description: AutoCAD Mechanical 2000|Company: Autodesk"
 90
        0
280
     0
281
     0
  0
CLASS
  1
ACMWELDSTANDARDISO
  2
AcmWeldingStdISO
  3
"Amdt_StdImp|Product Description: AutoCAD Mechanical 2000|Company: Autodesk"
 90
        0
280
     0
281
     0
  0
CLASS
  1
ACMIDSTANDARDISO
  2
AcmIdStdISO
  3
"Amdt_StdImp|Product Description: AutoCAD Mechanical 2000|Company: Autodesk"
 90
        0
280
     0
281
     0
  0
CLASS
  1
ACMDATUMSTANDARDISO
  2
AcmDatumStdISO
  3
"Amdt_StdImp|Product Description: AutoCAD Mechanical 2000|Company: Autodesk"
 90
        0
280
     0
281
     0
  0
CLASS
  1
ACMBOMSTANDARDISO
  2
AcmBOMStdISO
  3
"Amdt_StdImp|Product Description: AutoCAD Mechanical 2000|Company: Autodesk"
 90
        0
280
     0
281
     0
  0
CLASS
  1
ACMDETAILSTANDARDISO
  2
AmdtDetailSymStdISO
  3
"Amdt_StdImp|Product Description: AutoCAD Mechanical 2000|Company: Autodesk"
 90
        0
280
     0
281
     0
  0
CLASS
  1
ACMSECTIONSTANDARDISO
  2
AmdtSectionSymStdISO
  3
"Amdt_StdImp|Product Description: AutoCAD Mechanical 2000|Company: Autodesk"
 90
        0
280
     0
281
     0
  0
CLASS
  1
ACMCENTERLINESTANDARDISO
  2
AmdtCenterLineStdISO
  3
"Amdt_StdImp|Product Description: AutoCAD Mechanical 2000|Company: Autodesk"
 90
        0
280
     0
281
     0
  0
CLASS
  1
ACMNOTESTANDARDISO
  2
AmdtNoteStdISO
  3
"Amdt_StdImp|Product Description: AutoCAD Mechanical 2000|Company: Autodesk"
 90
        0
280
     0
281
     0
  0
CLASS
  1
ACAMGLAYSTD
  2
AcAmgLayStd
  3
"AcAmgLayStd|Product Description: AutoCAD Mechanical 2000|Company: Autodesk"
 90
        0
280
     0
281
     0
  0
CLASS
  1
ACAMGDIMSTD
  2
AcAmgDimStd
  3
"AcAmgDimStd|Product Description: AutoCAD Mechanical 2000|Company: Autodesk"
 90
        0
280
     0
281
     0
  0
CLASS
  1
ACAMGHOLECHARTSTDISO
  2
AcAmgHoleChartStdISO
  3
ACMSYMBB_MODULE_NAME
 90
        0
280
     0
281
     0
  0
CLASS
  1
ACAMGTITLESTD
  2
AcAmgTitleStd
  3
"TITLEAPP"
 90
        0
280
     0
281
     0
  0
CLASS
  1
ACAMGFILTERDAT
  2
AcAmgFilterDat
  3
"AcadM|Product Description: AutoCAD Mechanical 2000|Company: Autodesk"
 90
        0
280
     0
281
     0
  0
CLASS
  1
LAYER_INDEX
  2
AcDbLayerIndex
  3
AutoCAD 2000
 90
        0
280
     0
281
     0
  0
CLASS
  1
IDBUFFER
  2
AcDbIdBuffer
  3
AutoCAD 2000
 90
        0
280
     0
281
     0
  0
CLASS
  1
DICTIONARYVAR
  2
AcDbDictionaryVar
  3
AutoCAD 2000
 90
        0
280
     0
281
     0
  0
CLASS
  1
ACMSTANDARDANSI
  2
AcmStandardANSI
  3
"Amdt_StdImp|Product Description: AutoCAD Mechanical 2000|Company: Autodesk"
 90
        0
280
     0
281
     0
  0
CLASS
  1
ACMSURFSTANDARDANSI
  2
AcmSurfTextStdANSI
  3
"Amdt_StdImp|Product Description: AutoCAD Mechanical 2000|Company: Autodesk"
 90
        0
280
     0
281
     0
  0
CLASS
  1
ACMFCFSTANDARDANSI
  2
AcmFCFStdANSI
  3
"Amdt_StdImp|Product Description: AutoCAD Mechanical 2000|Company: Autodesk"
 90
        0
280
     0
281
     0
  0
CLASS
  1
ACMWELDSTANDARDANSI
  2
AcmWeldingStdANSI
  3
"Amdt_StdImp|Product Description: AutoCAD Mechanical 2000|Company: Autodesk"
 90
        0
280
     0
281
     0
  0
CLASS
  1
ACMIDSTANDARDANSI
  2
AcmIdStdANSI
  3
"Amdt_StdImp|Product Description: AutoCAD Mechanical 2000|Company: Autodesk"
 90
        0
280
     0
281
     0
  0
CLASS
  1
ACMDATUMSTANDARDANSI
  2
AcmDatumStdANSI
  3
"Amdt_StdImp|Product Description: AutoCAD Mechanical 2000|Company: Autodesk"
 90
        0
280
     0
281
     0
  0
CLASS
  1
ACMBOMSTANDARDANSI
  2
AcmBOMStdANSI
  3
"Amdt_StdImp|Product Description: AutoCAD Mechanical 2000|Company: Autodesk"
 90
        0
280
     0
281
     0
  0
CLASS
  1
ACMDETAILSTANDARDANSI
  2
AmdtDetailSymStdANSI
  3
"Amdt_StdImp|Product Description: AutoCAD Mechanical 2000|Company: Autodesk"
 90
        0
280
     0
281
     0
  0
CLASS
  1
ACMSECTIONSTANDARDANSI
  2
AmdtSectionSymStdANSI
  3
"Amdt_StdImp|Product Description: AutoCAD Mechanical 2000|Company: Autodesk"
 90
        0
280
     0
281
     0
  0
CLASS
  1
ACMCENTERLINESTANDARDANSI
  2
AmdtCenterLineStdANSI
  3
"Amdt_StdImp|Product Description: AutoCAD Mechanical 2000|Company: Autodesk"
 90
        0
280
     0
281
     0
  0
CLASS
  1
ACMNOTESTANDARDANSI
  2
AmdtNoteStdANSI
  3
"Amdt_StdImp|Product Description: AutoCAD Mechanical 2000|Company: Autodesk"
 90
        0
280
     0
281
     0
  0
CLASS
  1
ACAMGHOLECHARTSTDANSI
  2
AcAmgHoleChartStdANSI
  3
ACMSYMBB_MODULE_NAME
 90
        0
280
     0
281
     0
  0
CLASS
  1
AM_DRAWING_MGR
  2
AcDmDwgMgr
  3
AcMechDwgViewMgmt
 90
        0
280
     0
281
     0
  0
CLASS
  1
AM_DWG_DOCUMENT
  2
AcDmDwgDocument
  3
AcMechDwgViewMgmt
 90
        0
280
     0
281
     0
  0
CLASS
  1
AM_DWG_SHEET
  2
AcDmSheet
  3
AcMechDwgViewMgmt
 90
        0
280
     0
281
     0
  0
CLASS
  1
AM_VIEWDIMPARMAP
  2
AcDmViewDimParMap
  3
AcMechDwgViewMgmt
 90
        0
280
     0
281
     0
  0
CLASS
  1
AM_DWGMGR_NAME
  2
AcDmDwgMgrName
  3
AcMechDwgViewMgmt
 90
        0
280
     0
281
     0
  0
CLASS
  1
AMDTMENUSTATEMGR
  2
AmdtMenuStateMgr
  3
McadcomServices
 90
        0
280
     0
281
     0
  0
CLASS
  1
AMDTMCOMMENUSTATE
  2
AmdtMcomMenuState
  3
McadcomServices
 90
        0
280
     0
281
     0
  0
CLASS
  1
ASAPP
  2
AcAsAppObject
  3
AutoSurfServices
 90
        0
280
     0
281
     0
  0
CLASS
  1
IM_STATIC_MAN
  2
AcImStaticVarManager
  3
AcMeServices
 90
        0
280
     0
281
     0
  0
CLASS
  1
ACIMDBLSTATICVAR
  2
AcImDblStaticVar
  3
AcMeServices
 90
        0
280
     0
281
     0
  0
CLASS
  1
ACIMSTRSTATICVAR
  2
AcImStrStaticVar
  3
AcMeServices
 90
        0
280
     0
281
     0
  0
CLASS
  1
ACIMINTSTATICVAR
  2
AcImIntStaticVar
  3
AcMeServices
 90
        0
280
     0
281
     0
  0
CLASS
  1
ACASGREFMASTER
  2
AcAsGrefMaster
  3
AutoSurfResolverServices
 90
        0
280
     0
281
     0
  0
CLASS
  1
ACADGREFMODULE
  2
AcAdGrefModule
  3
AdGrefServices
 90
        0
280
     0
281
     0
  0
CLASS
  1
AMDTMAPISURFMOUDULE
  2
AmdtMApiSurfModule
  3
MApiSurfServices
 90
        0
280
     0
281
     0
  0
CLASS
  1
MAPIAMMOUDLE
  2
MApiAmModule
  3
MApiAmServices
 90
        0
280
     0
281
     0
  0
CLASS
  1
AMDTADMENUSTATE
  2
AmdtAdMenuState
  3
DesignerServices
 90
        0
280
     0
281
     0
  0
CLASS
  1
ADAPPL
  2
AcAdAppl
  3
DesignerServices
 90
        0
280
     0
281
     0
  0
CLASS
  1
DEPMGR
  2
AcAdDepMgr
  3
DesignerServices
 90
        0
280
     0
281
     0
  0
CLASS
  1
PARAMMGR
  2
AcAdParamMgr
  3
DesignerServices
 90
        0
280
     0
281
     0
  0
CLASS
  1
PARAMSCOPE
  2
AcAdParamScope
  3
DesignerServices
 90
        0
280
     0
281
     0
  0
CLASS
  1
NAMEDAPPL
  2
AcAdNamedAppl
  3
DesignerServices
 90
        0
280
     0
281
     0
  0
CLASS
  1
AMDTDMMENUSTATE
  2
AmdtDmMenuState
  3
AcMechDwgViewMgmt
 90
        0
280
     0
281
     0
  0
CLASS
  1
MAPIADMODULE
  2
MApiAdModule
  3
MApiAdServices
 90
        0
280
     0
281
     0
  0
CLASS
  1
AMDTAMMENUSTATE
  2
AmdtAmMenuState
  3
DesignerAssemblies
 90
        0
280
     0
281
     0
  0
CLASS
  1
ACAMPROJECT
  2
AcAmProject
  3
DesignerAssemblies
 90
        0
280
     0
281
     0
  0
CLASS
  1
ACAMGRCOMPDEF
  2
AcAmGrCompDef
  3
DesignerAssemblies
 90
        0
280
     0
281
     0
  0
CLASS
  1
ACCMCONTEXT
  2
AcCmContext
  3
DesignerAssemblies
 90
        0
280
     0
281
     0
  0
CLASS
  1
ACAMCOMPDEF
  2
AcAmCompDef
  3
DesignerAssemblies
 90
        0
280
     0
281
     0
  0
CLASS
  1
ACAMCOMPDEFMGR
  2
AcAmCompDefMgr
  3
DesignerAssemblies
 90
        0
280
     0
281
     0
  0
CLASS
  1
AMCONTEXTMGR
  2
AcAmContextMgr
  3
DesignerAssemblies
 90
        0
280
     0
281
     0
  0
CLASS
  1
ACAMCONTEXTMODELER
  2
AcAmContextModeler
  3
DesignerAssemblies
 90
        0
280
     0
281
     0
  0
CLASS
  1
CATALOGSTATE
  2
AcAmCatalogState
  3
DesignerAssemblies
 90
        0
280
     0
281
     0
  0
CLASS
  1
ACAMGRCOMPDEFSET
  2
AcAmGrCompDefSet
  3
DesignerAssemblies
 90
        0
280
     0
281
     0
  0
CLASS
  1
AMDTBROWSERDBTAB
  2
AmdtBrowserDbTab
  3
McadcomServices
 90
        0
280
     0
281
     0
  0
CLASS
  1
CBROWSERAPPOBJECT
  2
CBrowserAppObject
  3
McadcomServices
 90
        0
280
     0
281
     0
  0
CLASS
  1
DM_PLACEHOLDER
  2
AcDmSelsetPlaceholder
  3
AcMechDwgViewMgmt
 90
        0
280
     0
281
     0
  0
CLASS
  1
ACAD_PROXY_OBJECT_WRAPPER
  2
AcDbProxyObjectWrapper
  3
AutoCAD 2000
 90
        0
280
     0
281
     0
  0
CLASS
  1
LONG_TRANSACTION
  2
AcDbLongTransaction
  3
AutoCAD 2000
 90
        0
280
     0
281
     0
  0
CLASS
  1
LWPOLYLINE
  2
AcDbPolyline
  3
AutoCAD 2000
 90
        0
280
     0
281
     1
  0
CLASS
  1
HATCH
  2
AcDbHatch
  3
AutoCAD 2000
 90
        0
280
     0
281
     1
  0
CLASS
  1
XRECORD
  2
AcDbXrecord
  3
AutoCAD 2000
 90
        0
280
     0
281
     0
  0
ENDSEC
  0
SECTION
  2
TABLES
  0
TABLE
  2
VPORT
  5
8
330
0
100
AcDbSymbolTable
 70
     2
  0
VPORT
  5
58E4
330
8
100
AcDbSymbolTableRecord
100
AcDbViewportTableRecord
  2
*ACTIVE
 70
     0
 10
0.0
 20
0.0
 11
1.0
 21
1.0
 12
-15.76775288700173
 22
12.39188784920099
 13
0.0
 23
0.0
 14
10.0
 24
10.0
 15
10.0
 25
10.0
 16
0.0
 26
0.0
 36
1.0
 17
1065.767748687001
 27
730.1081121507989
 37
0.0
 40
1502.334630350194
 41
1.84990253411306
 42
50.0
 43
0.0
 44
0.0
 50
0.0
 51
0.0
 71
     0
 72
   100
 73
     1
 74
     2
 75
     1
 76
     0
 77
     0
 78
     0
  0
ENDTAB
  0
TABLE
  2
LTYPE
  5
5
330
0
100
AcDbSymbolTable
 70
    23
  0
LTYPE
  5
12
330
5
100
AcDbSymbolTableRecord
100
AcDbLinetypeTableRecord
  2
BYBLOCK
 70
     0
  3

 72
    65
 73
     0
 40
0.0
  0
LTYPE
  5
13
330
5
100
AcDbSymbolTableRecord
100
AcDbLinetypeTableRecord
  2
BYLAYER
 70
     0
  3

 72
    65
 73
     0
 40
0.0
  0
LTYPE
  5
14
330
5
100
AcDbSymbolTableRecord
100
AcDbLinetypeTableRecord
  2
CONTINUOUS
 70
     0
  3
Solid line
 72
    65
 73
     0
 40
0.0
  0
LTYPE
  5
35
330
5
100
AcDbSymbolTableRecord
100
AcDbLinetypeTableRecord
  2
DASHED
 70
     0
  3
Dashed __ __ __ __ __ __ __ __ __ __ __ __ __ _
 72
    65
 73
     2
 40
0.75
 49
0.5
 74
     0
 49
-0.25
 74
     0
  0
LTYPE
  5
36
330
5
100
AcDbSymbolTableRecord
100
AcDbLinetypeTableRecord
  2
CENTER
 70
     0
  3
Center ____ _ ____ _ ____ _ ____ _ ____ _ ____
 72
    65
 73
     4
 40
2.0
 49
1.25
 74
     0
 49
-0.25
 74
     0
 49
0.25
 74
     0
 49
-0.25
 74
     0
  0
LTYPE
  5
37
330
5
100
AcDbSymbolTableRecord
100
AcDbLinetypeTableRecord
  2
PHANTOM
 70
     0
  3
Phantom ______  __  __  ______  __  __  ______
 72
    65
 73
     6
 40
2.5
 49
1.25
 74
     0
 49
-0.25
 74
     0
 49
0.25
 74
     0
 49
-0.25
 74
     0
 49
0.25
 74
     0
 49
-0.25
 74
     0
  0
LTYPE
  5
38
330
5
100
AcDbSymbolTableRecord
100
AcDbLinetypeTableRecord
  2
HIDDEN
 70
     0
  3
Hidden __ __ __ __ __ __ __ __ __ __ __ __ __ _
 72
    65
 73
     2
 40
0.375
 49
0.25
 74
     0
 49
-0.125
 74
     0
  0
LTYPE
  5
1033
330
5
100
AcDbSymbolTableRecord
100
AcDbLinetypeTableRecord
  2
AM_ISO02W050
 70
     0
  3
__ __ __ __ __ __ __ __ __ __ __ __ __ __ __
 72
    65
 73
     2
 40
7.5
 49
6.0
 74
     0
 49
-1.5
 74
     0
  0
LTYPE
  5
1034
330
5
100
AcDbSymbolTableRecord
100
AcDbLinetypeTableRecord
  2
AM_ISO08W050
 70
     0
  3
____ . ____ . ____ . ____ . ____ . ____ . ____
 72
    65
 73
     4
 40
18.0
 49
12.0
 74
     0
 49
-1.5
 74
     0
 49
3.0
 74
     0
 49
-1.5
 74
     0
  0
LTYPE
  5
1035
330
5
100
AcDbSymbolTableRecord
100
AcDbLinetypeTableRecord
  2
AM_ISO09W050
 70
     0
  3
_____ . . _____ . . _____ . . ____ .. ____
 72
    65
 73
     6
 40
22.5
 49
12.0
 74
     0
 49
-1.5
 74
     0
 49
3.0
 74
     0
 49
-1.5
 74
     0
 49
3.0
 74
     0
 49
-1.5
 74
     0
  0
LTYPE
  5
1036
330
5
100
AcDbSymbolTableRecord
100
AcDbLinetypeTableRecord
  2
AMCONSTR
 70
     0
  3
_______________________
 72
    65
 73
     2
 40
9999.0
 49
9999.0
 74
     0
 49
0.0
 74
     0
  0
LTYPE
  5
1037
330
5
100
AcDbSymbolTableRecord
100
AcDbLinetypeTableRecord
  2
AM_ISO08W050X2
 70
     0
  3
__ . __ . __ . __ . __ . __
 72
    65
 73
     4
 40
9.0
 49
6.0
 74
     0
 49
-0.75
 74
     0
 49
1.5
 74
     0
 49
-0.75
 74
     0
  0
LTYPE
  5
1038
330
5
100
AcDbSymbolTableRecord
100
AcDbLinetypeTableRecord
  2
AM_ISO02W050X2
 70
     0
  3
 _ _ _ _ _ _ _ _ _ _ _ _
 72
    65
 73
     2
 40
3.75
 49
3.0
 74
     0
 49
-0.75
 74
     0
  0
LTYPE
  5
1039
330
5
100
AcDbSymbolTableRecord
100
AcDbLinetypeTableRecord
  2
AMZIGZAG
 70
     0
  3
/\/-/\/-/\/-/\/-/\/-/\/
 72
    65
 73
     2
 40
11.00009999999999
 49
0.0001
 74
     4
 75
   135
340
34
 46
0.04
 50
0.0
 44
0.0
 45
0.0
 49
-11.0
 74
     0
  0
LTYPE
  5
1047
330
5
100
AcDbSymbolTableRecord
100
AcDbLinetypeTableRecord
  2
ACISOWELD
 70
     0
  3
_ _ _ _ _
 72
    65
 73
     2
 40
2.0
 49
2.0
 74
     0
 49
-1.0
 74
     0
  0
LTYPE
  5
1048
330
5
100
AcDbSymbolTableRecord
100
AcDbLinetypeTableRecord
  2
ACISOTGB
 70
     0
  3
__ . . __ . .
 72
    65
 73
     6
 40
9.0
 49
4.0
 74
     0
 49
-1.0
 74
     0
 49
1.0
 74
     0
 49
-1.0
 74
     0
 49
1.0
 74
     0
 49
-1.0
 74
     0
  0
LTYPE
  5
1049
330
5
100
AcDbSymbolTableRecord
100
AcDbLinetypeTableRecord
  2
ACISOTGL
 70
     0
  3
_ _ _ _ _
 72
    65
 73
     2
 40
3.0
 49
2.0
 74
     0
 49
-1.0
 74
     0
  0
LTYPE
  5
2952
330
5
100
AcDbSymbolTableRecord
100
AcDbLinetypeTableRecord
  2
PHANTOM2
 70
     0
  3
Phantom (.5x) ___ _ _ ___ _ _ ___ _ _ ___ _ _
 72
    65
 73
     6
 40
1.25
 49
0.625
 74
     0
 49
-0.125
 74
     0
 49
0.125
 74
     0
 49
-0.125
 74
     0
 49
0.125
 74
     0
 49
-0.125
 74
     0
  0
LTYPE
  5
2953
330
5
100
AcDbSymbolTableRecord
100
AcDbLinetypeTableRecord
  2
CENTER2
 70
     0
  3
Center (.5x) ___ _ ___ _ ___ _ ___ _ ___ _ ___
 72
    65
 73
     4
 40
1.125
 49
0.75
 74
     0
 49
-0.125
 74
     0
 49
0.125
 74
     0
 49
-0.125
 74
     0
  0
LTYPE
  5
2954
330
5
100
AcDbSymbolTableRecord
100
AcDbLinetypeTableRecord
  2
HIDDEN2
 70
     0
  3
Hidden (.5x) _ _ _ _ _ _ _ _ _ _ _ _ _ _ _ _ _
 72
    65
 73
     2
 40
0.1875
 49
0.125
 74
     0
 49
-0.0625
 74
     0
  0
LTYPE
  5
2955
330
5
100
AcDbSymbolTableRecord
100
AcDbLinetypeTableRecord
  2
AMZIGZAG2
 70
     0
  3
/\/-/\/-/\/-/\/-/\/-/\/
 72
    65
 73
     2
 40
0.4401
 49
0.0001
 74
     4
 75
   135
340
34
 46
0.0016
 50
0.0
 44
0.0
 45
0.0
 49
-0.4400000000000001
 74
     0
  0
LTYPE
  5
2956
330
5
100
AcDbSymbolTableRecord
100
AcDbLinetypeTableRecord
  2
ACANSTGB
 70
     0
  3
__ . . __ . .
 72
    65
 73
     6
 40
0.35433070866
 49
0.15748031496
 74
     0
 49
-0.03937007874
 74
     0
 49
0.03937007874
 74
     0
 49
-0.03937007874
 74
     0
 49
0.03937007874
 74
     0
 49
-0.03937007874
 74
     0
  0
LTYPE
  5
2957
330
5
100
AcDbSymbolTableRecord
100
AcDbLinetypeTableRecord
  2
ACANSTGL
 70
     0
  3
_ _ _ _ _
 72
    65
 73
     2
 40
0.11811023622
 49
0.07874015748
 74
     0
 49
-0.03937007874
 74
     0
  0
LTYPE
  5
5865
330
5
100
AcDbSymbolTableRecord
100
AcDbLinetypeTableRecord
  2
ASULTYPE
 70
     0
  3
実線
 72
    65
 73
     2
 40
3.0
 49
2.5
 74
     0
 49
0.5
 74
     0
  0
LTYPE
  5
5866
330
5
100
AcDbSymbolTableRecord
100
AcDbLinetypeTableRecord
  2
ASVLTYPE
 70
     0
  3
__ __ __ __ __ __ __ __ __ __ __ __ __ __ __ __ __ __ __ __ __
 72
    65
 73
     2
 40
0.75
 49
0.5
 74
     0
 49
-0.25
 74
     0
  0
ENDTAB
  0
TABLE
  2
LAYER
  5
2
330
0
100
AcDbSymbolTable
 70
    18
  0
LAYER
  5
E
330
2
100
AcDbSymbolTableRecord
100
AcDbLayerTableRecord
  2
0
 70
     0
 62
     7
  6
CONTINUOUS
  0
LAYER
  5
39
330
2
100
AcDbSymbolTableRecord
100
AcDbLayerTableRecord
  2
DEFPOINTS
 70
     0
 62
     7
  6
CONTINUOUS
  0
LAYER
  5
3A
330
2
100
AcDbSymbolTableRecord
100
AcDbLayerTableRecord
  2
HASEN
 70
     0
 62
     2
  6
DASHED
  0
LAYER
  5
3B
330
2
100
AcDbSymbolTableRecord
100
AcDbLayerTableRecord
  2
HATCH
 70
     0
 62
     4
  6
CONTINUOUS
  0
LAYER
  5
3C
330
2
100
AcDbSymbolTableRecord
100
AcDbLayerTableRecord
  2
HOJO
 70
     0
 62
     6
  6
CONTINUOUS
  0
LAYER
  5
3D
330
2
100
AcDbSymbolTableRecord
100
AcDbLayerTableRecord
  2
HOJOORG
 70
     0
 62
     1
  6
CONTINUOUS
  0
LAYER
  5
3E
330
2
100
AcDbSymbolTableRecord
100
AcDbLayerTableRecord
  2
ITTEN
 70
     0
 62
     1
  6
CENTER
  0
LAYER
  5
3F
330
2
100
AcDbSymbolTableRecord
100
AcDbLayerTableRecord
  2
JISSEN
 70
     0
 62
     7
  6
CONTINUOUS
  0
LAYER
  5
40
330
2
100
AcDbSymbolTableRecord
100
AcDbLayerTableRecord
  2
NITEN
 70
     0
 62
     2
  6
PHANTOM
  0
LAYER
  5
41
330
2
100
AcDbSymbolTableRecord
100
AcDbLayerTableRecord
  2
POINT
 70
     0
 62
     7
  6
CONTINUOUS
  0
LAYER
  5
42
330
2
100
AcDbSymbolTableRecord
100
AcDbLayerTableRecord
  2
SAISEN
 70
     0
 62
     4
  6
CONTINUOUS
  0
LAYER
  5
43
330
2
100
AcDbSymbolTableRecord
100
AcDbLayerTableRecord
  2
SUNPOU
 70
     0
 62
     3
  6
CONTINUOUS
  0
LAYER
  5
44
330
2
100
AcDbSymbolTableRecord
100
AcDbLayerTableRecord
  2
TENSEN
 70
     0
 62
     2
  6
HIDDEN
  0
LAYER
  5
45
330
2
100
AcDbSymbolTableRecord
100
AcDbLayerTableRecord
  2
TEXT
 70
     0
 62
     3
  6
CONTINUOUS
  0
LAYER
  5
46
330
2
100
AcDbSymbolTableRecord
100
AcDbLayerTableRecord
  2
WAKU
 70
     0
 62
     5
  6
CONTINUOUS
  0
LAYER
  5
24B
330
2
100
AcDbSymbolTableRecord
100
AcDbLayerTableRecord
  2
氷出口_CS_
 70
     0
 62
    22
  6
CONTINUOUS
  0
LAYER
  5
2958
330
2
100
AcDbSymbolTableRecord
100
AcDbLayerTableRecord
  2
SUNPOUT
 70
     0
 62
    92
  6
CONTINUOUS
  0
LAYER
  5
3D2E
330
2
100
AcDbSymbolTableRecord
100
AcDbLayerTableRecord
  2
MODEL
 70
     0
 62
     7
  6
CONTINUOUS
  0
ENDTAB
  0
TABLE
  2
STYLE
  5
3
330
0
100
AcDbSymbolTable
 70
     7
  0
STYLE
  5
F
330
3
100
AcDbSymbolTableRecord
100
AcDbTextStyleTableRecord
  2
STANDARD
 70
     0
 40
0.0
 41
1.0
 50
0.0
 71
     0
 42
15.0
  3
romans.shx
  4
extfont.shx
  0
STYLE
  5
34
330
3
100
AcDbSymbolTableRecord
100
AcDbTextStyleTableRecord
  2

 70
     1
 40
0.0
 41
1.0
 50
0.0
 71
     0
 42
2.5
  3
ltypeshp.shx
  4

  0
STYLE
  5
48
330
3
100
AcDbSymbolTableRecord
100
AcDbTextStyleTableRecord
  2
K
 70
     0
 40
0.0
 41
1.0
 50
0.0
 71
     0
 42
1.0
  3
ROMANS
  4
EXTFONT
  0
STYLE
  5
103A
330
3
100
AcDbSymbolTableRecord
100
AcDbTextStyleTableRecord
  2
ACISOTS
 70
     0
 40
1.0
 41
1.0
 50
0.0
 71
     0
 42
15.0
  3
isocp.shx
  4
extfont.shx
  0
STYLE
  5
1046
330
3
100
AcDbSymbolTableRecord
100
AcDbTextStyleTableRecord
  2
ACISOGDT
 70
     0
 40
0.0
 41
1.0
 50
0.0
 71
     0
 42
15.0
  3
amgdt.shx
  4

  0
STYLE
  5
2959
330
3
100
AcDbSymbolTableRecord
100
AcDbTextStyleTableRecord
  2
ACANSTS
 70
     0
 40
1.0
 41
1.0
 50
0.0
 71
     0
 42
15.0
  3
romans.shx
  4
extfont.shx
  0
STYLE
  5
295A
330
3
100
AcDbSymbolTableRecord
100
AcDbTextStyleTableRecord
  2
ACANSGDT
 70
     0
 40
0.0
 41
1.0
 50
0.0
 71
     0
 42
15.0
  3
amgdtans.shx
  4

  0
ENDTAB
  0
TABLE
  2
VIEW
  5
6
330
0
100
AcDbSymbolTable
 70
     0
  0
ENDTAB
  0
TABLE
  2
UCS
  5
7
330
0
100
AcDbSymbolTable
 70
     0
  0
ENDTAB
  0
TABLE
  2
APPID
  5
9
330
0
100
AcDbSymbolTable
 70
    17
  0
APPID
  5
10
330
9
100
AcDbSymbolTableRecord
100
AcDbRegAppTableRecord
  2
ACAD
 70
     0
  0
APPID
  5
24
330
9
100
AcDbSymbolTableRecord
100
AcDbRegAppTableRecord
  2
CONTENTTABDATA
 70
     0
  0
APPID
  5
25
330
9
100
AcDbSymbolTableRecord
100
AcDbRegAppTableRecord
  2
CONTENTCURRENTTAB
 70
     0
  0
APPID
  5
1011
330
9
100
AcDbSymbolTableRecord
100
AcDbRegAppTableRecord
  2
MCAD_NO_VIS
 70
     0
  0
APPID
  5
1012
330
9
100
AcDbSymbolTableRecord
100
AcDbRegAppTableRecord
  2
ACAD_TEMP_GRAPHIC
 70
     0
  0
APPID
  5
1023
330
9
100
AcDbSymbolTableRecord
100
AcDbRegAppTableRecord
  2
ACATTRIBSERVICES
 70
     0
  0
APPID
  5
1087
330
9
100
AcDbSymbolTableRecord
100
AcDbRegAppTableRecord
  2
___LIKI___
 70
     0
  0
APPID
  5
1D80
330
9
100
AcDbSymbolTableRecord
100
AcDbRegAppTableRecord
  2
GENIUS_GENDTOL_13
 70
     0
  0
APPID
  5
57F3
330
9
100
AcDbSymbolTableRecord
100
AcDbRegAppTableRecord
  2
GENIUS_GENDIM_13
 70
     0
  0
APPID
  5
57F5
330
9
100
AcDbSymbolTableRecord
100
AcDbRegAppTableRecord
  2
GENIUS_GE3DTOL_13
 70
     0
  0
APPID
  5
581B
330
9
100
AcDbSymbolTableRecord
100
AcDbRegAppTableRecord
  2
AD_DRAW
 70
     0
  0
APPID
  5
5867
330
9
100
AcDbSymbolTableRecord
100
AcDbRegAppTableRecord
  2
ASURF_PCURVE_APPNAME
 70
     0
  0
APPID
  5
586C
330
9
100
AcDbSymbolTableRecord
100
AcDbRegAppTableRecord
  2
AMG_3D2D_5_0
 70
     0
  0
APPID
  5
5897
330
9
100
AcDbSymbolTableRecord
100
AcDbRegAppTableRecord
  2
DESIGNERASSEMBLIES
 70
     0
  0
APPID
  5
589C
330
9
100
AcDbSymbolTableRecord
100
AcDbRegAppTableRecord
  2
ACADM_DIM_EDIT
 70
     0
  0
APPID
  5
589D
330
9
100
AcDbSymbolTableRecord
100
AcDbRegAppTableRecord
  2
AMDT_DM_ADJ
 70
     0
  0
APPID
  5
5908
330
9
100
AcDbSymbolTableRecord
100
AcDbRegAppTableRecord
  2
CONTENTBLOCKICON
 70
     0
  0
ENDTAB
  0
TABLE
  2
DIMSTYLE
  5
A
330
0
100
AcDbSymbolTable
 70
    16
  0
DIMSTYLE
105
1D
330
A
100
AcDbSymbolTableRecord
100
AcDbDimStyleTableRecord
  2
STANDARD
 70
     0
  3

  4

  5

  6

  7

 40
1.0
 41
0.18
 42
0.0625
 43
0.38
 44
0.18
 45
0.0
 46
0.0
 47
0.0
 48
0.0
140
0.18
141
0.09
142
0.0
143
25.4
144
1.0
145
0.0
146
1.0
147
0.09
 71
     0
 72
     0
 73
     1
 74
     1
 75
     0
 76
     0
 77
     0
 78
     0
170
     0
171
     2
172
     0
173
     0
174
     0
175
     0
176
     0
177
     0
178
     0
270
     2
271
     4
272
     4
273
     2
274
     2
340
F
275
     0
280
     0
281
     0
282
     0
283
     1
284
     0
285
     0
286
     0
287
     3
288
     0
  0
DIMSTYLE
105
47
102
{ACAD_REACTORS
330
565F
330
566C
330
5679
330
5686
330
5693
330
56AD
330
56C7
330
56D4
330
56E1
330
56F0
330
56FD
330
570A
102
}
330
A
100
AcDbSymbolTableRecord
100
AcDbDimStyleTableRecord
  2
IMCADLT
 70
     0
  3

  4

  5

  6
ARROW
  7
ARROW
 40
5.0
 41
2.5
 42
1.0
 43
6.0
 44
1.0
 45
0.0
 46
0.0
 47
0.0
 48
0.0
140
3.0
141
0.0
142
0.0
143
25.4
144
1.0
145
0.0
146
0.45
147
1.0
 71
     0
 72
     0
 73
     0
 74
     0
 75
     0
 76
     0
 77
     3
 78
     8
170
     0
171
     2
172
     1
173
     1
174
     0
175
     0
176
     0
177
     0
178
     0
270
     2
271
     2
272
     2
273
     2
274
     2
340
F
275
     0
280
     0
281
     0
282
     0
283
     1
284
     8
285
     0
286
     0
287
     1
288
     0
  0
DIMSTYLE
105
104D
330
A
100
AcDbSymbolTableRecord
100
AcDbDimStyleTableRecord
  2
AM_ISO
 70
     0
  3

  4
"
  5

  6

  7

 40
1.0
 41
2.5
 42
1.0
 43
10.0
 44
1.0
 45
0.0
 46
0.0
 47
0.1
 48
0.1
140
3.5
141
0.0
142
0.0
143
0.0393701
144
1.0
145
0.0
146
0.71
147
1.5
 71
     0
 72
     0
 73
     0
 74
     0
 75
     0
 76
     0
 77
     1
 78
     8
170
     0
171
     2
172
     1
173
     0
174
     0
175
     0
176
   256
177
   256
178
     2
270
     2
271
     2
272
     3
273
     2
274
     4
340
F
275
     0
280
     0
281
     0
282
     0
283
     0
284
     8
285
     0
286
     0
287
     3
288
     0
  0
DIMSTYLE
105
104E
330
A
100
AcDbSymbolTableRecord
100
AcDbDimStyleTableRecord
  2
AM_ISO$3
 70
     0
  3

  4
"
  5

  6

  7

 40
1.0
 41
2.5
 42
1.0
 43
10.0
 44
1.0
 45
0.0
 46
0.0
 47
0.1
 48
0.1
140
3.5
141
0.0
142
0.0
143
0.0393701
144
1.0
145
0.0
146
0.71
147
1.5
 71
     0
 72
     0
 73
     0
 74
     1
 75
     0
 76
     0
 77
     1
 78
     8
170
     0
171
     2
172
     0
173
     0
174
     0
175
     0
176
   256
177
   256
178
     2
270
     2
271
     2
272
     3
273
     2
274
     4
340
F
275
     0
280
     0
281
     0
282
     0
283
     0
284
     8
285
     0
286
     0
287
     0
288
     1
  0
DIMSTYLE
105
104F
330
A
100
AcDbSymbolTableRecord
100
AcDbDimStyleTableRecord
  2
AM_ISO$4
 70
     0
  3

  4
"
  5

  6

  7

 40
1.0
 41
2.5
 42
1.0
 43
10.0
 44
1.0
 45
0.0
 46
0.0
 47
0.1
 48
0.1
140
3.5
141
0.0
142
0.0
143
0.0393701
144
1.0
145
0.0
146
0.71
147
1.5
 71
     0
 72
     0
 73
     0
 74
     1
 75
     0
 76
     0
 77
     1
 78
     8
170
     0
171
     2
172
     0
173
     0
174
     0
175
     0
176
   256
177
   256
178
     2
270
     2
271
     2
272
     3
273
     2
274
     4
340
F
275
     0
280
     0
281
     0
282
     0
283
     0
284
     8
285
     0
286
     0
287
     0
288
     1
  0
DIMSTYLE
105
1050
330
A
100
AcDbSymbolTableRecord
100
AcDbDimStyleTableRecord
  2
AM_ISO$6
 70
     0
  3

  4
"
  5

  6

  7

 40
1.0
 41
2.5
 42
1.0
 43
10.0
 44
1.0
 45
0.0
 46
0.0
 47
0.1
 48
0.1
140
3.5
141
0.0
142
0.0
143
0.0393701
144
1.0
145
0.0
146
0.71
147
1.5
 71
     0
 72
     0
 73
     0
 74
     0
 75
     0
 76
     0
 77
     0
 78
     8
170
     0
171
     2
172
     1
173
     0
174
     0
175
     0
176
   256
177
   256
178
     2
270
     2
271
     2
272
     3
273
     2
274
     4
340
F
275
     0
280
     0
281
     0
282
     0
283
     0
284
     8
285
     0
286
     0
287
     3
288
     0
  0
DIMSTYLE
105
1051
330
A
100
AcDbSymbolTableRecord
100
AcDbDimStyleTableRecord
  2
AM_ISO$7
 70
     0
  3

  4
"
  5

  6

  7

 40
1.0
 41
2.5
 42
1.0
 43
10.0
 44
1.0
 45
0.0
 46
0.0
 47
0.1
 48
0.1
140
5.0
141
0.0
142
0.0
143
0.0393701
144
1.0
145
0.0
146
0.71
147
1.5
 71
     0
 72
     0
 73
     0
 74
     0
 75
     0
 76
     0
 77
     1
 78
     8
170
     0
171
     2
172
     1
173
     0
174
     0
175
     0
176
   256
177
   256
178
     2
270
     2
271
     2
272
     3
273
     2
274
     4
340
F
275
     0
280
     0
281
     0
282
     0
283
     0
284
     8
285
     0
286
     0
287
     3
288
     0
  0
DIMSTYLE
105
1052
330
A
100
AcDbSymbolTableRecord
100
AcDbDimStyleTableRecord
  2
AM_ISO$SF
 70
     0
  3

  4
"
  5

  6

  7

 40
1.0
 41
2.5
 42
1.0
 43
10.0
 44
1.0
 45
0.0
 46
0.0
 47
0.1
 48
0.1
140
3.5
141
0.0
142
0.0
143
0.0393701
144
1.0
145
0.0
146
0.71
147
1.5
 71
     0
 72
     0
 73
     0
 74
     0
 75
     1
 76
     1
 77
     1
 78
     8
170
     0
171
     2
172
     1
173
     0
174
     0
175
     0
176
   256
177
   256
178
     2
270
     2
271
     2
272
     3
273
     2
274
     4
340
F
275
     0
280
     0
281
     0
282
     0
283
     0
284
     8
285
     0
286
     0
287
     3
288
     0
  0
DIMSTYLE
105
1057
330
A
100
AcDbSymbolTableRecord
100
AcDbDimStyleTableRecord
  2
AM_ISO$SH
 70
     0
  3

  4
"
  5

  6
GENAXEH
  7

 40
1.0
 41
2.5
 42
1.0
 43
10.0
 44
1.0
 45
0.0
 46
0.0
 47
0.1
 48
0.1
140
3.5
141
0.0
142
0.0
143
0.0393701
144
2.0
145
0.0
146
0.71
147
1.5
 71
     0
 72
     0
 73
     0
 74
     0
 75
     1
 76
     1
 77
     1
 78
     8
170
     0
171
     2
172
     1
173
     1
174
     0
175
     0
176
   256
177
   256
178
     2
270
     2
271
     2
272
     3
273
     2
274
     4
340
F
275
     0
280
     0
281
     0
282
     0
283
     0
284
     8
285
     0
286
     0
287
     3
288
     0
  0
DIMSTYLE
105
295B
330
A
100
AcDbSymbolTableRecord
100
AcDbDimStyleTableRecord
  2
ITM
 70
     0
  3

  4

  5
ARROWANG
  6
ARROWANG
  7
ARROWANG
 40
1.0
 41
1.5
 42
1.0
 43
6.0
 44
1.0
 45
0.0
 46
0.0
 47
495.0
 48
0.0
140
3.0
141
0.0
142
0.0
143
25.4
144
1.0
145
0.0
146
1.0
147
0.5
 71
     0
 72
     0
 73
     0
 74
     0
 75
     0
 76
     0
 77
     3
 78
     8
170
     0
171
     2
172
     1
173
     1
174
     1
175
     0
176
     0
177
     0
178
     0
270
     2
271
     4
272
     4
273
     2
274
     2
340
48
275
     0
280
     0
281
     0
282
     0
283
     1
284
     0
285
     0
286
     0
287
     3
288
     0
  0
DIMSTYLE
105
295C
330
A
100
AcDbSymbolTableRecord
100
AcDbDimStyleTableRecord
  2
AM_ANSI
 70
     0
  3

  4
mm
  5

  6

  7

 40
1.0
 41
0.1
 42
0.05
 43
0.5
 44
0.1
 45
0.0
 46
0.0
 47
0.1
 48
0.1
140
0.12
141
0.0
142
0.0
143
25.4
144
1.0
145
0.0
146
0.71
147
0.06
 71
     0
 72
     0
 73
     1
 74
     1
 75
     0
 76
     0
 77
     0
 78
     7
170
     0
171
     2
172
     0
173
     0
174
     0
175
     0
176
   256
177
   256
178
     2
270
     2
271
     4
272
     4
273
     2
274
     4
340
F
275
     0
280
     0
281
     0
282
     0
283
     1
284
     7
285
     0
286
     0
287
     3
288
     0
  0
DIMSTYLE
105
295D
330
A
100
AcDbSymbolTableRecord
100
AcDbDimStyleTableRecord
  2
AM_ANSI$3
 70
     0
  3

  4
mm
  5

  6

  7

 40
1.0
 41
0.1
 42
0.05
 43
0.5
 44
0.1
 45
0.0
 46
0.0
 47
0.1
 48
0.1
140
0.12
141
0.0
142
0.0
143
25.4
144
1.0
145
0.0
146
0.71
147
0.06
 71
     0
 72
     0
 73
     1
 74
     1
 75
     0
 76
     0
 77
     0
 78
     7
170
     0
171
     2
172
     0
173
     0
174
     0
175
     0
176
   256
177
   256
178
     2
270
     2
271
     4
272
     4
273
     2
274
     4
340
F
275
     0
280
     0
281
     0
282
     0
283
     1
284
     7
285
     0
286
     0
287
     0
288
     1
  0
DIMSTYLE
105
295E
330
A
100
AcDbSymbolTableRecord
100
AcDbDimStyleTableRecord
  2
AM_ANSI$4
 70
     0
  3

  4
mm
  5

  6

  7

 40
1.0
 41
0.1
 42
0.05
 43
0.5
 44
0.1
 45
0.0
 46
0.0
 47
0.1
 48
0.1
140
0.12
141
0.0
142
0.0
143
25.4
144
1.0
145
0.0
146
0.71
147
0.06
 71
     0
 72
     0
 73
     1
 74
     1
 75
     0
 76
     0
 77
     0
 78
     7
170
     0
171
     2
172
     0
173
     0
174
     0
175
     0
176
   256
177
   256
178
     2
270
     2
271
     4
272
     4
273
     2
274
     4
340
F
275
     0
280
     0
281
     0
282
     0
283
     1
284
     7
285
     0
286
     0
287
     0
288
     1
  0
DIMSTYLE
105
295F
330
A
100
AcDbSymbolTableRecord
100
AcDbDimStyleTableRecord
  2
AM_ANSI$7
 70
     0
  3

  4
mm
  5

  6

  7

 40
1.0
 41
0.1
 42
0.05
 43
0.5
 44
0.1
 45
0.0
 46
0.0
 47
0.1
 48
0.1
140
0.24
141
0.0
142
0.0
143
25.4
144
1.0
145
0.0
146
0.71
147
0.06
 71
     0
 72
     0
 73
     1
 74
     1
 75
     0
 76
     0
 77
     0
 78
     7
170
     0
171
     2
172
     0
173
     0
174
     0
175
     0
176
   256
177
   256
178
     2
270
     2
271
     4
272
     4
273
     2
274
     4
340
F
275
     0
280
     0
281
     0
282
     0
283
     1
284
     7
285
     0
286
     0
287
     3
288
     0
  0
DIMSTYLE
105
2960
330
A
100
AcDbSymbolTableRecord
100
AcDbDimStyleTableRecord
  2
AM_ANSI$SF
 70
     0
  3

  4
mm
  5

  6

  7

 40
1.0
 41
0.1
 42
0.05
 43
0.5
 44
0.1
 45
0.0
 46
0.0
 47
0.1
 48
0.1
140
0.12
141
0.0
142
0.0
143
25.4
144
1.0
145
0.0
146
0.71
147
0.06
 71
     0
 72
     0
 73
     1
 74
     1
 75
     1
 76
     1
 77
     0
 78
     7
170
     0
171
     2
172
     0
173
     0
174
     0
175
     0
176
   256
177
   256
178
     2
270
     2
271
     4
272
     4
273
     2
274
     4
340
F
275
     0
280
     0
281
     0
282
     0
283
     1
284
     7
285
     0
286
     0
287
     3
288
     0
  0
DIMSTYLE
105
2961
330
A
100
AcDbSymbolTableRecord
100
AcDbDimStyleTableRecord
  2
AM_ANSI$SH
 70
     0
  3

  4
mm
  5

  6
GENAXEH
  7

 40
1.0
 41
0.1
 42
0.05
 43
0.5
 44
0.1
 45
0.0
 46
0.0
 47
0.1
 48
0.1
140
0.12
141
0.0
142
0.0
143
25.4
144
1.0
145
0.0
146
0.71
147
0.06
 71
     0
 72
     0
 73
     1
 74
     1
 75
     1
 76
     1
 77
     0
 78
     7
170
     0
171
     2
172
     0
173
     1
174
     0
175
     0
176
   256
177
   256
178
     2
270
     2
271
     4
272
     4
273
     2
274
     4
340
F
275
     0
280
     0
281
     0
282
     0
283
     1
284
     7
285
     0
286
     0
287
     3
288
     0
  0
ENDTAB
  0
TABLE
  2
BLOCK_RECORD
  5
1
330
0
100
AcDbSymbolTable
 70
    41
  0
BLOCK_RECORD
  5
18
102
{ACAD_XDICTIONARY
360
E62
102
}
330
1
100
AcDbSymbolTableRecord
100
AcDbBlockTableRecord
  2
*MODEL_SPACE
  0
BLOCK_RECORD
  5
15
102
{ACAD_XDICTIONARY
360
E60
102
}
330
1
100
AcDbSymbolTableRecord
100
AcDbBlockTableRecord
  2
*PAPER_SPACE
  0
BLOCK_RECORD
  5
49
330
1
100
AcDbSymbolTableRecord
100
AcDbBlockTableRecord
  2
ARROW
  0
BLOCK_RECORD
  5
52
330
1
100
AcDbSymbolTableRecord
100
AcDbBlockTableRecord
  2
ARROWANG
  0
BLOCK_RECORD
  5
58
330
1
100
AcDbSymbolTableRecord
100
AcDbBlockTableRecord
  2
BATU
  0
BLOCK_RECORD
  5
60
330
1
100
AcDbSymbolTableRecord
100
AcDbBlockTableRecord
  2
CENCRS
  0
BLOCK_RECORD
  5
66
330
1
100
AcDbSymbolTableRecord
100
AcDbBlockTableRecord
  2
CENLINE
  0
BLOCK_RECORD
  5
6B
330
1
100
AcDbSymbolTableRecord
100
AcDbBlockTableRecord
  2
DOT
  0
BLOCK_RECORD
  5
71
330
1
100
AcDbSymbolTableRecord
100
AcDbBlockTableRecord
  2
HOJO
  0
BLOCK_RECORD
  5
76
330
1
100
AcDbSymbolTableRecord
100
AcDbBlockTableRecord
  2
HOJOANG
  0
BLOCK_RECORD
  5
7B
330
1
100
AcDbSymbolTableRecord
100
AcDbBlockTableRecord
  2
HOJOC
  0
BLOCK_RECORD
  5
80
330
1
100
AcDbSymbolTableRecord
100
AcDbBlockTableRecord
  2
HOJOCR
  0
BLOCK_RECORD
  5
86
330
1
100
AcDbSymbolTableRecord
100
AcDbBlockTableRecord
  2
HOJOORG
  0
BLOCK_RECORD
  5
8B
330
1
100
AcDbSymbolTableRecord
100
AcDbBlockTableRecord
  2
HOJOORGC
  0
BLOCK_RECORD
  5
90
330
1
100
AcDbSymbolTableRecord
100
AcDbBlockTableRecord
  2
HOJOORGCR
  0
BLOCK_RECORD
  5
96
330
1
100
AcDbSymbolTableRecord
100
AcDbBlockTableRecord
  2
WAKU
  0
BLOCK_RECORD
  5
A5
330
1
100
AcDbSymbolTableRecord
100
AcDbBlockTableRecord
  2
IMCADLT3
  0
BLOCK_RECORD
  5
E6
330
1
100
AcDbSymbolTableRecord
100
AcDbBlockTableRecord
  2
A$C19783D3A
  0
BLOCK_RECORD
  5
D4B
330
1
100
AcDbSymbolTableRecord
100
AcDbBlockTableRecord
  2
_IMCADLT3
  0
BLOCK_RECORD
  5
1053
330
1
100
AcDbSymbolTableRecord
100
AcDbBlockTableRecord
  2
GENAXEH
  0
BLOCK_RECORD
  5
39E6
330
1
100
AcDbSymbolTableRecord
100
AcDbBlockTableRecord
  2
1
1001
CONTENTBLOCKICON
1071
        0
1004
2800000020000000200000000100080000000000000400000000000000000000000000000000000000000000000080000080000000808000800000008000800080800000C0C0C000C0DCC000F0CAA6000020400000206000002080000020A0000020C0000020E00000400000004020000040400000406000004080000040A0
1004
000040C0000040E00000600000006020000060400000606000006080000060A0000060C0000060E00000800000008020000080400000806000008080000080A0000080C0000080E00000A0000000A0200000A0400000A0600000A0800000A0A00000A0C00000A0E00000C0000000C0200000C0400000C0600000C0800000C0
1004
A00000C0C00000C0E00000E0000000E0200000E0400000E0600000E0800000E0A00000E0C00000E0E00040000000400020004000400040006000400080004000A0004000C0004000E00040200000402020004020400040206000402080004020A0004020C0004020E000404000004040200040404000404060004040800040
1004
40A0004040C0004040E00040600000406020004060400040606000406080004060A0004060C0004060E00040800000408020004080400040806000408080004080A0004080C0004080E00040A0000040A0200040A0400040A0600040A0800040A0A00040A0C00040A0E00040C0000040C0200040C0400040C0600040C08000
1004
40C0A00040C0C00040C0E00040E0000040E0200040E0400040E0600040E0800040E0A00040E0C00040E0E00080000000800020008000400080006000800080008000A0008000C0008000E00080200000802020008020400080206000802080008020A0008020C0008020E00080400000804020008040400080406000804080
1004
008040A0008040C0008040E00080600000806020008060400080606000806080008060A0008060C0008060E00080800000808020008080400080806000808080008080A0008080C0008080E00080A0000080A0200080A0400080A0600080A0800080A0A00080A0C00080A0E00080C0000080C0200080C0400080C0600080C0
1004
800080C0A00080C0C00080C0E00080E0000080E0200080E0400080E0600080E0800080E0A00080E0C00080E0E000C0000000C0002000C0004000C0006000C0008000C000A000C000C000C000E000C0200000C0202000C0204000C0206000C0208000C020A000C020C000C020E000C0400000C0402000C0404000C0406000C0
1004
408000C040A000C040C000C040E000C0600000C0602000C0604000C0606000C0608000C060A000C060C000C060E000C0800000C0802000C0804000C0806000C0808000C080A000C080C000C080E000C0A00000C0A02000C0A04000C0A06000C0A08000C0A0A000C0A0C000C0A0E000C0C00000C0C02000C0C04000C0C06000
1004
C0C08000C0C0A000F0FBFF00A4A0A000808080000000FF0000FF000000FFFF00FF000000FF00FF00FFFF0000FFFFFF00000000000000000000000000000000000000000000000000000000000000000000000000000000000000FF00000000000000000000000000000000000000000000000000000000000000FFFFFFFFFF
1004
FFFFFFFFFFFF000000000000000000000000000000000000000000FF00FF000000000000FFFF000000000000000000000000000000000000000000FF00FFFFFFFFFFFFFFFFFF000000000000000000000000000000000000000000FF00FF000000000000FFFF000000000000000000000000000000000000000000FF00FF00
1004
0000000000FFFF000000000000000000000000000000000000000000FF00FFFFFFFFFFFFFFFFFF000000000000000000000000000000000000000000FF00FF00000000000000FF000000000000000000000000000000000000000000FF00FFFFFFFFFFFFFFFFFF000000000000000000000000000000000000000000FF00FF
1004
0000000000000000000000000000000000000000000000000000000000FF00FF0000000000000000000000000000000000000000000000000000000000FF00FFFFFFFFFFFFFFFFFF000000000000000000000000000000000000000000FF00FF0000000000FFFFFFFF0000000000000000000000000000000000000000FF00
1004
FFFFFFFFFFFFFFFF00FF0000000000000000000000000000000000000000FF00FF0000000000FFFF00FF0000000000000000000000000000000000000000FF00FF0000000000FFFF00FF0000000000000000000000000000000000000000FF00FFFFFFFFFFFFFFFF00FF0000000000000000000000000000000000000000FF
1004
00FF000000FFFFFFFFFFFF0000000000000000000000000000000000000000FF00FFFFFFFFFFFFFFFFFF000000000000000000000000000000000000000000FF00FF0000FF00FF000000000000000000000000000000000000000000000000FF00FF0000FF00FF000000000000000000000000000000000000000000000000
1004
FF00FFFFFFFFFFFFFFFFFF000000000000000000000000000000000000000000FF00FF000000FFFF0000FF000000000000000000000000000000000000000000FF00FFFFFFFFFFFFFFFFFF000000000000000000000000000000000000000000FF00FF00000000000000000000000000000000000000000000000000000000
1004
00FF00FF0000000000000000000000000000000000000000000000000000000000FF00FFFFFFFFFFFFFFFFFF000000000000000000000000000000000000000000FF00FF00000000000000FF000000000000000000000000000000000000000000FF00FFFFFFFFFFFFFFFFFF00000000000000000000000000000000000000
1004
0000FFFF00000000000000000000000000000000000000000000000000000000000000000000000000000000000000000000000000000000
  0
BLOCK_RECORD
  5
3AF3
330
1
100
AcDbSymbolTableRecord
100
AcDbBlockTableRecord
  2
2
1001
CONTENTBLOCKICON
1071
        0
1004
2800000020000000200000000100080000000000000400000000000000000000000000000000000000000000000080000080000000808000800000008000800080800000C0C0C000C0DCC000F0CAA6000020400000206000002080000020A0000020C0000020E00000400000004020000040400000406000004080000040A0
1004
000040C0000040E00000600000006020000060400000606000006080000060A0000060C0000060E00000800000008020000080400000806000008080000080A0000080C0000080E00000A0000000A0200000A0400000A0600000A0800000A0A00000A0C00000A0E00000C0000000C0200000C0400000C0600000C0800000C0
1004
A00000C0C00000C0E00000E0000000E0200000E0400000E0600000E0800000E0A00000E0C00000E0E00040000000400020004000400040006000400080004000A0004000C0004000E00040200000402020004020400040206000402080004020A0004020C0004020E000404000004040200040404000404060004040800040
1004
40A0004040C0004040E00040600000406020004060400040606000406080004060A0004060C0004060E00040800000408020004080400040806000408080004080A0004080C0004080E00040A0000040A0200040A0400040A0600040A0800040A0A00040A0C00040A0E00040C0000040C0200040C0400040C0600040C08000
1004
40C0A00040C0C00040C0E00040E0000040E0200040E0400040E0600040E0800040E0A00040E0C00040E0E00080000000800020008000400080006000800080008000A0008000C0008000E00080200000802020008020400080206000802080008020A0008020C0008020E00080400000804020008040400080406000804080
1004
008040A0008040C0008040E00080600000806020008060400080606000806080008060A0008060C0008060E00080800000808020008080400080806000808080008080A0008080C0008080E00080A0000080A0200080A0400080A0600080A0800080A0A00080A0C00080A0E00080C0000080C0200080C0400080C0600080C0
1004
800080C0A00080C0C00080C0E00080E0000080E0200080E0400080E0600080E0800080E0A00080E0C00080E0E000C0000000C0002000C0004000C0006000C0008000C000A000C000C000C000E000C0200000C0202000C0204000C0206000C0208000C020A000C020C000C020E000C0400000C0402000C0404000C0406000C0
1004
408000C040A000C040C000C040E000C0600000C0602000C0604000C0606000C0608000C060A000C060C000C060E000C0800000C0802000C0804000C0806000C0808000C080A000C080C000C080E000C0A00000C0A02000C0A04000C0A06000C0A08000C0A0A000C0A0C000C0A0E000C0C00000C0C02000C0C04000C0C06000
1004
C0C08000C0C0A000F0FBFF00A4A0A000808080000000FF0000FF000000FFFF00FF000000FF00FF00FFFF0000FFFFFF00000000000000000000000000000000000000000000000000000000000000000000000000000000000000FF000000000000000000000000000000000000000000000000000000000000FF00FFFF0000
1004
0000000000000000000000000000000000000000000000000000FFFFFFFF00000000000000000000000000000000000000000000000000000000FFFFFF00FF00000000000000000000000000000000000000000000000000000000FFFF00FF00000000000000000000000000000000000000000000000000000000FFFFFFFF
1004
00000000000000000000000000000000000000000000000000000000FFFFFF00FF00000000000000000000000000000000000000000000000000000000FFFFFFFF00000000000000000000000000000000000000000000000000000000FFFFFF00FF00000000000000000000000000000000000000000000000000000000FF
1004
FFFFFF00000000000000000000000000000000000000000000000000000000FFFFFFFFFFFF000000000000000000000000000000000000000000000000000000FFFFFFFF00FFFF000000000000000000000000000000000000000000000000000000FFFFFFFF00FF0000000000000000000000000000000000000000000000
1004
00000000FFFF00FF00FF00000000000000000000000000000000000000000000000000000000FFFF00FF00000000000000000000000000000000000000000000000000000000FFFF00FF00000000000000000000000000000000000000000000000000000000FFFF00FF000000000000000000000000000000000000000000
1004
00000000000000FFFF00FF00000000000000000000000000000000000000000000000000000000FFFF00FF00000000000000000000000000000000000000000000000000000000FFFF00FF00000000000000000000000000000000000000000000000000000000FFFF00FF0000000000000000000000000000000000000000
1004
0000000000000000FFFF00FF00000000000000000000000000000000000000000000000000000000FFFF00FF00000000000000000000000000000000000000000000000000000000FFFF00FF00000000000000000000000000000000000000000000000000000000FFFF00FFFF000000000000000000000000000000000000
1004
000000000000000000FFFF0000FF000000000000000000000000000000000000000000000000000000FFFF0000FF000000000000000000000000000000000000000000000000000000FF000000FF000000000000000000000000000000000000000000000000000000FFFF0000FF0000000000000000000000000000000000
1004
000000000000000000000000FFFFFF0000000000000000000000000000000000000000000000000000000000000000000000000000000000
  0
BLOCK_RECORD
  5
3B8B
330
1
100
AcDbSymbolTableRecord
100
AcDbBlockTableRecord
  2
3
1001
CONTENTBLOCKICON
1071
        0
1004
2800000020000000200000000100080000000000000400000000000000000000000000000000000000000000000080000080000000808000800000008000800080800000C0C0C000C0DCC000F0CAA6000020400000206000002080000020A0000020C0000020E00000400000004020000040400000406000004080000040A0
1004
000040C0000040E00000600000006020000060400000606000006080000060A0000060C0000060E00000800000008020000080400000806000008080000080A0000080C0000080E00000A0000000A0200000A0400000A0600000A0800000A0A00000A0C00000A0E00000C0000000C0200000C0400000C0600000C0800000C0
1004
A00000C0C00000C0E00000E0000000E0200000E0400000E0600000E0800000E0A00000E0C00000E0E00040000000400020004000400040006000400080004000A0004000C0004000E00040200000402020004020400040206000402080004020A0004020C0004020E000404000004040200040404000404060004040800040
1004
40A0004040C0004040E00040600000406020004060400040606000406080004060A0004060C0004060E00040800000408020004080400040806000408080004080A0004080C0004080E00040A0000040A0200040A0400040A0600040A0800040A0A00040A0C00040A0E00040C0000040C0200040C0400040C0600040C08000
1004
40C0A00040C0C00040C0E00040E0000040E0200040E0400040E0600040E0800040E0A00040E0C00040E0E00080000000800020008000400080006000800080008000A0008000C0008000E00080200000802020008020400080206000802080008020A0008020C0008020E00080400000804020008040400080406000804080
1004
008040A0008040C0008040E00080600000806020008060400080606000806080008060A0008060C0008060E00080800000808020008080400080806000808080008080A0008080C0008080E00080A0000080A0200080A0400080A0600080A0800080A0A00080A0C00080A0E00080C0000080C0200080C0400080C0600080C0
1004
800080C0A00080C0C00080C0E00080E0000080E0200080E0400080E0600080E0800080E0A00080E0C00080E0E000C0000000C0002000C0004000C0006000C0008000C000A000C000C000C000E000C0200000C0202000C0204000C0206000C0208000C020A000C020C000C020E000C0400000C0402000C0404000C0406000C0
1004
408000C040A000C040C000C040E000C0600000C0602000C0604000C0606000C0608000C060A000C060C000C060E000C0800000C0802000C0804000C0806000C0808000C080A000C080C000C080E000C0A00000C0A02000C0A04000C0A06000C0A08000C0A0A000C0A0C000C0A0E000C0C00000C0C02000C0C04000C0C06000
1004
C0C08000C0C0A000F0FBFF00A4A0A000808080000000FF0000FF000000FFFF00FF000000FF00FF00FFFF0000FFFFFF000000000000000000000000000000000000000000000000000000000000000000000000000000000000000000000000FF0000000000000000000000000000000000000000000000000000FFFFFFFFFF
1004
FFFFFFFFFFFF00000000000000000000000000000000000000FFFF00FFFF0000FFFF000000FFFFFF0000000000000000000000000000000000FFFFFFFFFFFFFFFFFFFFFFFFFF00FFFFFF0000000000000000000000000000FFFFFFFF00FFFF00000000FFFF00FFFF00FFFF0000000000000000000000FFFF00FFFF00FF0000
1004
000000000000FF00FFFF00FFFF00000000000000000000FF00FFFFFF00FF0000000000000000FF00FFFFFF00FFFF0000000000000000FF00FFFFFF00FFFF0000000000000000FFFF00FFFFFF00FFFF00000000000000FFFFFFFF00000000FF0000000000FFFF00000000FFFFFF00FF000000000000FF00FF0000FF00FFFF00
1004
FFFF0000FF0000FFFF00FF0000FFFFFFFF0000000000FFFF00FFFFFF00FF00FF0000FFFF0000FF00FF00FFFFFF00FFFFFF00000000FF00FFFF000000FF00FF00FF00000000FF00FF00FF000000FFFF00FF00000000FF00FFFF00000000FF00FF00FF000000FFFF0000FF00000000FF00FF000000FFFF00FF0000000000FF00
1004
00FFFFFFFFFFFF0000FF0000000000FF00FF000000FFFFFFFF000000000000FF0000FFFFFFFF0000FF000000000000FFFFFFFF0000FFFFFFFF000000000000FF0000FFFFFFFF0000FF000000000000FFFFFFFF0000FFFF00FF0000000000FF000000FFFFFFFF000000FF0000000000FFFFFFFF000000FF00FFFF00000000FF
1004
00FFFFFF000000FFFF0000FF00000000FF00FF00000000FF00FFFF000000FF00FF00FF00000000FF00FF00FF000000FFFF00FF0000000000FFFF00FFFFFF00FF00FF0000FFFF0000FF00FF00FFFFFF00FFFFFF0000000000FF00FF0000FF00FFFF0000FF0000FFFF00FFFF00FF0000FFFFFFFF000000000000FFFFFFFF0000
1004
0000FFFF0000000000FF00000000FFFFFF00FF00000000000000FF00FFFFFF00FFFF0000000000000000FFFF00FFFFFF00FFFF0000000000000000FF00FFFFFF00FF0000000000000000FF00FFFFFFFFFFFF000000000000000000FF0000FFFF00FF0000000000000000FF00FFFFFFFFFF0000000000000000000000FFFF00
1004
FFFF00FF000000000000FF00FFFF00FFFF0000000000000000000000000000FFFFFFFFFFFFFFFFFFFFFFFFFFFF00FFFF000000000000000000000000000000FFFFFFFF000000FFFFFF000000FFFFFF000000000000000000000000000000000000FFFFFFFFFFFFFFFFFFFFFF00000000000000000000000000000000000000
1004
000000000000FFFFFF0000000000000000000000000000000000000000000000000000000000000000000000000000000000000000000000
  0
BLOCK_RECORD
  5
3D20
330
1
100
AcDbSymbolTableRecord
100
AcDbBlockTableRecord
  2
ZNUT060000S
  0
BLOCK_RECORD
  5
3D30
330
1
100
AcDbSymbolTableRecord
100
AcDbBlockTableRecord
  2
NUT060000S
  0
BLOCK_RECORD
  5
3E0D
330
1
100
AcDbSymbolTableRecord
100
AcDbBlockTableRecord
  2
NUT060000F
  0
BLOCK_RECORD
  5
3E1A
330
1
100
AcDbSymbolTableRecord
100
AcDbBlockTableRecord
  2
NUT060T
  0
BLOCK_RECORD
  5
3E89
330
1
100
AcDbSymbolTableRecord
100
AcDbBlockTableRecord
  2
LNUT060000S
  0
BLOCK_RECORD
  5
506A
330
1
100
AcDbSymbolTableRecord
100
AcDbBlockTableRecord
  2
ZPAN050T
  0
BLOCK_RECORD
  5
512E
330
1
100
AcDbSymbolTableRecord
100
AcDbBlockTableRecord
  2
PAN050000
  0
BLOCK_RECORD
  5
5660
330
1
100
AcDbSymbolTableRecord
100
AcDbBlockTableRecord
  2
*D28
  0
BLOCK_RECORD
  5
566D
330
1
100
AcDbSymbolTableRecord
100
AcDbBlockTableRecord
  2
*D29
  0
BLOCK_RECORD
  5
567A
330
1
100
AcDbSymbolTableRecord
100
AcDbBlockTableRecord
  2
*D30
  0
BLOCK_RECORD
  5
5687
330
1
100
AcDbSymbolTableRecord
100
AcDbBlockTableRecord
  2
*D31
  0
BLOCK_RECORD
  5
5694
330
1
100
AcDbSymbolTableRecord
100
AcDbBlockTableRecord
  2
*D32
  0
BLOCK_RECORD
  5
56AE
330
1
100
AcDbSymbolTableRecord
100
AcDbBlockTableRecord
  2
*D33
  0
BLOCK_RECORD
  5
56C8
330
1
100
AcDbSymbolTableRecord
100
AcDbBlockTableRecord
  2
*D34
  0
BLOCK_RECORD
  5
56D5
330
1
100
AcDbSymbolTableRecord
100
AcDbBlockTableRecord
  2
*D35
  0
BLOCK_RECORD
  5
56E2
330
1
100
AcDbSymbolTableRecord
100
AcDbBlockTableRecord
  2
*D36
  0
BLOCK_RECORD
  5
56F1
330
1
100
AcDbSymbolTableRecord
100
AcDbBlockTableRecord
  2
*D37
  0
BLOCK_RECORD
  5
56FE
330
1
100
AcDbSymbolTableRecord
100
AcDbBlockTableRecord
  2
*D38
  0
BLOCK_RECORD
  5
570B
330
1
100
AcDbSymbolTableRecord
100
AcDbBlockTableRecord
  2
*D39
  0
BLOCK_RECORD
  5
588E
330
1
100
AcDbSymbolTableRecord
100
AcDbBlockTableRecord
  2
*U40
  0
ENDTAB
  0
ENDSEC
  0
SECTION
  2
BLOCKS
  0
BLOCK
  5
19
330
18
100
AcDbEntity
  8
0
100
AcDbBlockBegin
  2
*MODEL_SPACE
 70
     0
 10
0.0
 20
0.0
 30
0.0
  3
*MODEL_SPACE
  1

  0
ENDBLK
  5
1A
330
18
100
AcDbEntity
  8
0
100
AcDbBlockEnd
  0
BLOCK
  5
16
330
15
100
AcDbEntity
 67
     1
  8
0
100
AcDbBlockBegin
  2
*PAPER_SPACE
 70
     0
 10
0.0
 20
0.0
 30
0.0
  3
*PAPER_SPACE
  1

  0
ENDBLK
  5
17
330
15
100
AcDbEntity
 67
     1
  8
0
100
AcDbBlockEnd
  0
BLOCK
  5
4D
330
49
100
AcDbEntity
  8
0
100
AcDbBlockBegin
  2
ARROW
 70
     0
 10
0.0
 20
0.0
 30
0.0
  3
ARROW
  1

  0
LINE
  5
4A
330
49
100
AcDbEntity
  8
0
100
AcDbLine
 10
0.0
 20
0.0
 30
0.0
 11
-1.500000000000021
 21
-0.4019237886466982
 31
0.0
  0
LINE
  5
4B
330
49
100
AcDbEntity
  8
0
100
AcDbLine
 10
-1.0
 20
0.0
 30
0.0
 11
0.0
 21
0.0
 31
0.0
  0
LINE
  5
4C
330
49
100
AcDbEntity
  8
0
100
AcDbLine
 10
0.0
 20
0.0
 30
0.0
 11
-1.499999999999957
 21
0.4019237886467409
 31
0.0
  0
ENDBLK
  5
4E
330
49
100
AcDbEntity
  8
0
100
AcDbBlockEnd
  0
BLOCK
  5
55
330
52
100
AcDbEntity
  8
0
100
AcDbBlockBegin
  2
ARROWANG
 70
     0
 10
0.0
 20
0.0
 30
0.0
  3
ARROWANG
  1

  0
LINE
  5
53
330
52
100
AcDbEntity
  8
SUNPOU
100
AcDbLine
 10
0.0
 20
0.0
 30
0.0
 11
-1.499999999999957
 21
0.4019237886467409
 31
0.0
  0
LINE
  5
54
330
52
100
AcDbEntity
  8
SUNPOU
100
AcDbLine
 10
0.0
 20
0.0
 30
0.0
 11
-1.500000000000028
 21
-0.4019237886467124
 31
0.0
  0
ENDBLK
  5
56
330
52
100
AcDbEntity
  8
0
100
AcDbBlockEnd
  0
BLOCK
  5
5D
330
58
100
AcDbEntity
  8
0
100
AcDbBlockBegin
  2
BATU
 70
     0
 10
0.0
 20
0.0
 30
0.0
  3
BATU
  1

  0
LINE
  5
59
330
58
100
AcDbEntity
  8
ITTEN
100
AcDbLine
 10
-1.0
 20
0.0
 30
0.0
 11
0.0
 21
0.0
 31
0.0
  0
LINE
  5
5A
330
58
100
AcDbEntity
  8
ITTEN
100
AcDbLine
 10
0.0
 20
0.0
 30
0.0
 11
1.0
 21
0.0
 31
0.0
  0
LINE
  5
5B
330
58
100
AcDbEntity
  8
ITTEN
100
AcDbLine
 10
0.0
 20
-1.0
 30
0.0
 11
0.0
 21
0.0
 31
0.0
  0
LINE
  5
5C
330
58
100
AcDbEntity
  8
ITTEN
100
AcDbLine
 10
0.0
 20
0.0
 30
0.0
 11
0.0
 21
1.0
 31
0.0
  0
ENDBLK
  5
5E
330
58
100
AcDbEntity
  8
0
100
AcDbBlockEnd
  0
BLOCK
  5
63
330
60
100
AcDbEntity
  8
0
100
AcDbBlockBegin
  2
CENCRS
 70
     0
 10
0.0
 20
0.0
 30
0.0
  3
CENCRS
  1

  0
LINE
  5
61
330
60
100
AcDbEntity
  8
ITTEN
100
AcDbLine
 10
0.0
 20
0.5
 30
0.0
 11
0.0
 21
-0.5
 31
0.0
  0
LINE
  5
62
330
60
100
AcDbEntity
  8
ITTEN
100
AcDbLine
 10
-0.5
 20
0.0
 30
0.0
 11
0.5
 21
0.0
 31
0.0
  0
ENDBLK
  5
64
330
60
100
AcDbEntity
  8
0
100
AcDbBlockEnd
  0
BLOCK
  5
68
330
66
100
AcDbEntity
  8
0
100
AcDbBlockBegin
  2
CENLINE
 70
     0
 10
0.0
 20
0.0
 30
0.0
  3
CENLINE
  1

  0
LINE
  5
67
330
66
100
AcDbEntity
  8
ITTEN
100
AcDbLine
 10
0.0
 20
0.0
 30
0.0
 11
1.0
 21
0.0
 31
0.0
  0
ENDBLK
  5
69
330
66
100
AcDbEntity
  8
0
100
AcDbBlockEnd
  0
BLOCK
  5
6E
330
6B
100
AcDbEntity
  8
0
100
AcDbBlockBegin
  2
DOT
 70
     0
 10
0.0
 20
0.0
 30
0.0
  3
DOT
  1

  0
LWPOLYLINE
  5
6C
330
6B
100
AcDbEntity
  8
JISSEN
  6
BYBLOCK
 62
     0
100
AcDbPolyline
 90
        2
 70
     1
 43
0.5
 10
-0.25
 20
0.0
 42
1.0
 10
0.25
 20
0.0
 42
1.0
  0
LINE
  5
6D
330
6B
100
AcDbEntity
  8
JISSEN
  6
BYBLOCK
 62
     0
100
AcDbLine
 10
-0.5
 20
0.0
 30
0.0
 11
-1.0
 21
0.0
 31
0.0
  0
ENDBLK
  5
6F
330
6B
100
AcDbEntity
  8
0
100
AcDbBlockEnd
  0
BLOCK
  5
73
330
71
100
AcDbEntity
  8
0
100
AcDbBlockBegin
  2
HOJO
 70
     0
 10
0.0
 20
0.0
 30
0.0
  3
HOJO
  1

  0
LINE
  5
72
330
71
100
AcDbEntity
  8
HOJO
100
AcDbLine
 10
0.0
 20
0.0
 30
0.0
 11
2.0
 21
0.0
 31
0.0
  0
ENDBLK
  5
74
330
71
100
AcDbEntity
  8
0
100
AcDbBlockEnd
  0
BLOCK
  5
78
330
76
100
AcDbEntity
  8
0
100
AcDbBlockBegin
  2
HOJOANG
 70
     0
 10
0.0
 20
0.0
 30
0.0
  3
HOJOANG
  1

  0
LINE
  5
77
330
76
100
AcDbEntity
  8
HOJO
100
AcDbLine
 10
-1.0
 20
0.0
 30
0.0
 11
1.0
 21
0.0
 31
0.0
  0
ENDBLK
  5
79
330
76
100
AcDbEntity
  8
0
100
AcDbBlockEnd
  0
BLOCK
  5
7D
330
7B
100
AcDbEntity
  8
0
100
AcDbBlockBegin
  2
HOJOC
 70
     0
 10
0.0
 20
0.0
 30
0.0
  3
HOJOC
  1

  0
CIRCLE
  5
7C
330
7B
100
AcDbEntity
  8
HOJO
100
AcDbCircle
 10
0.0
 20
0.0
 30
0.0
 40
1.0
  0
ENDBLK
  5
7E
330
7B
100
AcDbEntity
  8
0
100
AcDbBlockEnd
  0
BLOCK
  5
83
330
80
100
AcDbEntity
  8
0
100
AcDbBlockBegin
  2
HOJOCR
 70
     0
 10
0.0
 20
0.0
 30
0.0
  3
HOJOCR
  1

  0
LINE
  5
81
330
80
100
AcDbEntity
  8
HOJO
100
AcDbLine
 10
-1.0
 20
0.0
 30
0.0
 11
1.0
 21
0.0
 31
0.0
  0
LINE
  5
82
330
80
100
AcDbEntity
  8
HOJO
100
AcDbLine
 10
0.0
 20
-1.0
 30
0.0
 11
0.0
 21
1.0
 31
0.0
  0
ENDBLK
  5
84
330
80
100
AcDbEntity
  8
0
100
AcDbBlockEnd
  0
BLOCK
  5
88
330
86
100
AcDbEntity
  8
0
100
AcDbBlockBegin
  2
HOJOORG
 70
     0
 10
0.0
 20
0.0
 30
0.0
  3
HOJOORG
  1

  0
LINE
  5
87
330
86
100
AcDbEntity
  8
HOJOORG
100
AcDbLine
 10
-1.0
 20
0.0
 30
0.0
 11
1.0
 21
0.0
 31
0.0
  0
ENDBLK
  5
89
330
86
100
AcDbEntity
  8
0
100
AcDbBlockEnd
  0
BLOCK
  5
8D
330
8B
100
AcDbEntity
  8
0
100
AcDbBlockBegin
  2
HOJOORGC
 70
     0
 10
0.0
 20
0.0
 30
0.0
  3
HOJOORGC
  1

  0
CIRCLE
  5
8C
330
8B
100
AcDbEntity
  8
HOJOORG
100
AcDbCircle
 10
0.0
 20
0.0
 30
0.0
 40
1.0
  0
ENDBLK
  5
8E
330
8B
100
AcDbEntity
  8
0
100
AcDbBlockEnd
  0
BLOCK
  5
93
330
90
100
AcDbEntity
  8
0
100
AcDbBlockBegin
  2
HOJOORGCR
 70
     0
 10
0.0
 20
0.0
 30
0.0
  3
HOJOORGCR
  1

  0
INSERT
  5
91
330
90
100
AcDbEntity
  8
JISSEN
100
AcDbBlockReference
  2
HOJOORG
 10
0.0
 20
0.0
 30
0.0
 50
90.0
  0
INSERT
  5
92
330
90
100
AcDbEntity
  8
JISSEN
100
AcDbBlockReference
  2
HOJOORG
 10
0.0
 20
0.0
 30
0.0
  0
ENDBLK
  5
94
330
90
100
AcDbEntity
  8
0
100
AcDbBlockEnd
  0
BLOCK
  5
9B
330
96
100
AcDbEntity
  8
0
100
AcDbBlockBegin
  2
WAKU
 70
     0
 10
0.0
 20
0.0
 30
0.0
  3
WAKU
  1

  0
LINE
  5
97
330
96
100
AcDbEntity
  8
WAKU
100
AcDbLine
 10
0.999999996
 20
0.0
 30
0.0
 11
0.999999996
 21
0.9999999999999998
 31
0.0
  0
LINE
  5
98
330
96
100
AcDbEntity
  8
WAKU
100
AcDbLine
 10
0.0
 20
0.9999999999999998
 30
0.0
 11
0.999999996
 21
0.9999999999999998
 31
0.0
  0
LINE
  5
99
330
96
100
AcDbEntity
  8
WAKU
100
AcDbLine
 10
0.999999996
 20
0.0
 30
0.0
 11
0.0
 21
0.0
 31
0.0
  0
LINE
  5
9A
330
96
100
AcDbEntity
  8
WAKU
100
AcDbLine
 10
0.0
 20
0.0
 30
0.0
 11
0.0
 21
0.9999999999999998
 31
0.0
  0
ENDBLK
  5
9C
330
96
100
AcDbEntity
  8
0
100
AcDbBlockEnd
  0
BLOCK
  5
A6
330
A5
100
AcDbEntity
  8
0
100
AcDbBlockBegin
  2
IMCADLT3
 70
     0
 10
0.0
 20
0.0
 30
0.0
  3
IMCADLT3
  1

  0
ENDBLK
  5
A7
330
A5
100
AcDbEntity
  8
0
100
AcDbBlockEnd
  0
BLOCK
  5
1AD
330
E6
100
AcDbEntity
  8
0
100
AcDbBlockBegin
  2
A$C19783D3A
 70
     0
 10
0.0
 20
0.0
 30
0.0
  3
A$C19783D3A
  1

  0
LINE
  5
E7
330
E6
100
AcDbEntity
  8
JISSEN
 62
     3
100
AcDbLine
 10
31.6955212414336
 20
11.30000058013958
 30
0.0
 11
59.19104228504848
 21
11.30000058013958
 31
0.0
  0
LINE
  5
E8
330
E6
100
AcDbEntity
  8
JISSEN
 62
     3
100
AcDbLine
 10
31.6955212414336
 20
27.80000058013958
 30
0.0
 11
59.19104228504848
 21
27.80000058013958
 31
0.0
  0
LINE
  5
E9
330
E6
100
AcDbEntity
  8
JISSEN
 62
     3
100
AcDbLine
 10
31.6955212414336
 20
22.30000058013958
 30
0.0
 11
59.19104228504848
 21
22.30000058013958
 31
0.0
  0
LINE
  5
EA
330
E6
100
AcDbEntity
  8
JISSEN
 62
     3
100
AcDbLine
 10
31.6955212414336
 20
16.80000058013959
 30
0.0
 11
59.19104228504848
 21
16.80000058013959
 31
0.0
  0
MTEXT
  5
EB
330
E6
100
AcDbEntity
  8
JISSEN
 62
     3
100
AcDbMText
 10
41.76355431159886
 20
8.075389675667807
 30
0.0
 40
3.0
 41
30.0
 71
     5
 72
     5
  1
流用機種名
  7
K
1001
ACAD
1000
MTEXTBEGIN
1070
    73
1070
     1
1070
    44
1040
1.0
1070
    74
1070
     0
1000
MTEXTEND
  0
MTEXT
  5
EC
330
E6
100
AcDbEntity
  8
JISSEN
 62
     3
100
AcDbMText
 10
55.54014197213582
 20
8.378494138161514
 30
0.0
 40
3.0
 41
10.0
 71
     5
 72
     5
  1
数量
  7
K
1001
ACAD
1000
MTEXTBEGIN
1070
    73
1070
     1
1070
    44
1040
1.0
1070
    74
1070
     0
1000
MTEXTEND
  0
LINE
  5
ED
330
E6
100
AcDbEntity
  8
JISSEN
 62
     3
100
AcDbLine
 10
51.69552124143361
 20
33.30000058013958
 30
0.0
 11
51.69552124143361
 21
5.800000580139581
 31
0.0
  0
LINE
  5
EE
330
E6
100
AcDbEntity
  8
JISSEN
 62
     3
100
AcDbLine
 10
31.6955212414336
 20
5.800000580139567
 30
0.0
 11
59.19104228504848
 21
5.800000580139567
 31
0.0
  0
LINE
  5
EF
330
E6
100
AcDbEntity
  8
SUNPOU
100
AcDbLine
 10
59.19104228504848
 20
33.30000058013958
 30
0.0
 11
59.19104228504848
 21
5.800000580139567
 31
0.0
  0
LINE
  5
F0
330
E6
100
AcDbEntity
  8
SUNPOU
100
AcDbLine
 10
31.6955212414336
 20
33.30000058013958
 30
0.0
 11
31.6955212414336
 21
5.800000580139567
 31
0.0
  0
LINE
  5
F1
330
E6
100
AcDbEntity
  8
JISSEN
 62
     3
100
AcDbLine
 10
31.6955212414336
 20
33.30000058013958
 30
0.0
 11
59.19104228504848
 21
33.30000058013958
 31
0.0
  0
TEXT
  5
F2
330
E6
100
AcDbEntity
  8
SUNPOU
100
AcDbText
 10
350.14585641555
 20
39.42435143287866
 30
0.0
 40
3.0
  1
寸 法
  7
K
100
AcDbText
  0
TEXT
  5
F3
330
E6
100
AcDbEntity
  8
SUNPOU
100
AcDbText
 10
350.145859233442
 20
43.2605016467578
 30
0.0
 40
3.0
  1
材 料
  7
K
100
AcDbText
  0
LINE
  5
F4
330
E6
100
AcDbEntity
  8
SUNPOU
100
AcDbLine
 10
64.92817834040497
 20
16.80000058013959
 30
0.0
 11
69.42817834040496
 21
11.30000058013958
 31
0.0
  0
LINE
  5
F5
330
E6
100
AcDbEntity
  8
SUNPOU
100
AcDbLine
 10
60.42817834040497
 20
11.30000058013958
 30
0.0
 11
64.92817834040497
 21
16.80000058013959
 31
0.0
  0
LINE
  5
F6
330
E6
100
AcDbEntity
  8
SUNPOU
100
AcDbLine
 10
64.92817834040497
 20
22.30000058013958
 30
0.0
 11
69.42817834040498
 21
16.80000058013959
 31
0.0
  0
LINE
  5
F7
330
E6
100
AcDbEntity
  8
SUNPOU
100
AcDbLine
 10
60.42817834040497
 20
16.80000058013959
 30
0.0
 11
64.92817834040497
 21
22.30000058013958
 31
0.0
  0
LINE
  5
F8
330
E6
100
AcDbEntity
  8
SUNPOU
100
AcDbLine
 10
64.92817834040497
 20
27.80000058013959
 30
0.0
 11
60.42817834040497
 21
22.30000058013958
 31
0.0
  0
LINE
  5
F9
330
E6
100
AcDbEntity
  8
SUNPOU
100
AcDbLine
 10
69.42817834040498
 20
22.30000058013958
 30
0.0
 11
64.92817834040497
 21
27.80000058013959
 31
0.0
  0
LINE
  5
FA
330
E6
100
AcDbEntity
  8
SUNPOU
100
AcDbLine
 10
64.92817834040497
 20
33.30000058013958
 30
0.0
 11
69.428178340405
 21
27.80000058013959
 31
0.0
  0
LINE
  5
FB
330
E6
100
AcDbEntity
  8
SUNPOU
100
AcDbLine
 10
60.42817834040497
 20
27.80000058013959
 30
0.0
 11
64.92817834040497
 21
33.30000058013958
 31
0.0
  0
LINE
  5
FC
330
E6
100
AcDbEntity
  8
SUNPOU
100
AcDbLine
 10
3.000000197818735
 20
33.30000058013958
 30
0.0
 11
3.000000197818735
 21
5.800000580139567
 31
0.0
  0
LINE
  5
FD
330
E6
100
AcDbEntity
  8
SUNPOU
100
AcDbLine
 10
30.4955212414336
 20
33.30000058013958
 30
0.0
 11
30.4955212414336
 21
5.800000580139567
 31
0.0
  0
LINE
  5
FE
330
E6
100
AcDbEntity
  8
JISSEN
 62
     3
100
AcDbLine
 10
3.000000197818735
 20
5.800000580139567
 30
0.0
 11
30.49552124143361
 21
5.800000580139567
 31
0.0
  0
LINE
  5
FF
330
E6
100
AcDbEntity
  8
JISSEN
 62
     3
100
AcDbLine
 10
23.00000019781873
 20
33.30000058013958
 30
0.0
 11
23.00000019781873
 21
5.800000580139581
 31
0.0
  0
MTEXT
  5
100
330
E6
100
AcDbEntity
  8
JISSEN
 62
     3
100
AcDbMText
 10
26.84462092852095
 20
8.378494138161514
 30
0.0
 40
3.0
 41
10.0
 71
     5
 72
     5
  1
数量
  7
K
1001
ACAD
1000
MTEXTBEGIN
1070
    73
1070
     1
1070
    44
1040
1.0
1070
    74
1070
     0
1000
MTEXTEND
  0
MTEXT
  5
101
330
E6
100
AcDbEntity
  8
JISSEN
 62
     3
100
AcDbMText
 10
13.06803326798398
 20
8.075389675667807
 30
0.0
 40
3.0
 41
30.0
 71
     5
 72
     5
  1
流用機種名
  7
K
1001
ACAD
1000
MTEXTBEGIN
1070
    73
1070
     1
1070
    44
1040
1.0
1070
    74
1070
     0
1000
MTEXTEND
  0
LINE
  5
102
330
E6
100
AcDbEntity
  8
JISSEN
 62
     3
100
AcDbLine
 10
3.000000197818735
 20
16.80000058013959
 30
0.0
 11
30.49552124143361
 21
16.80000058013959
 31
0.0
  0
LINE
  5
103
330
E6
100
AcDbEntity
  8
JISSEN
 62
     3
100
AcDbLine
 10
3.000000197818735
 20
22.30000058013958
 30
0.0
 11
30.49552124143361
 21
22.30000058013958
 31
0.0
  0
LINE
  5
104
330
E6
100
AcDbEntity
  8
JISSEN
 62
     3
100
AcDbLine
 10
3.000000197818735
 20
27.80000058013958
 30
0.0
 11
30.49552124143361
 21
27.80000058013958
 31
0.0
  0
LINE
  5
105
330
E6
100
AcDbEntity
  8
JISSEN
 62
     3
100
AcDbLine
 10
3.000000197818735
 20
33.30000058013958
 30
0.0
 11
30.49552124143361
 21
33.30000058013958
 31
0.0
  0
LINE
  5
106
330
E6
100
AcDbEntity
  8
JISSEN
 62
     3
100
AcDbLine
 10
3.000000197818735
 20
11.30000058013958
 30
0.0
 11
30.49552124143361
 21
11.30000058013958
 31
0.0
  0
LINE
  5
107
330
E6
100
AcDbEntity
  8
SUNPOU
100
AcDbLine
 10
60.42817834040497
 20
33.30000058013958
 30
0.0
 11
60.42817834040497
 21
5.800000580139567
 31
0.0
  0
LINE
  5
108
330
E6
100
AcDbEntity
  8
SUNPOU
100
AcDbLine
 10
206.6364001978185
 20
33.30000058013958
 30
0.0
 11
206.6364001978185
 21
5.800000580139567
 31
0.0
  0
LINE
  5
109
330
E6
100
AcDbEntity
  8
JISSEN
 62
     3
100
AcDbLine
 10
206.6364001978185
 20
5.800000580139567
 30
0.0
 11
60.42817834040497
 21
5.800000580139567
 31
0.0
  0
LINE
  5
10A
330
E6
100
AcDbEntity
  8
JISSEN
 62
     3
100
AcDbLine
 10
69.42817834040496
 20
5.800000580139581
 30
0.0
 11
69.428178340405
 21
33.30000058013958
 31
0.0
  0
LINE
  5
10B
330
E6
100
AcDbEntity
  8
SUNPOU
100
AcDbLine
 10
80.58388490205093
 20
33.30000058013958
 30
0.0
 11
80.58388490205093
 21
5.800000580139581
 31
0.0
  0
LINE
  5
10C
330
E6
100
AcDbEntity
  8
JISSEN
 62
     3
100
AcDbLine
 10
60.42817834040497
 20
11.30000058013958
 30
0.0
 11
206.6364001978185
 21
11.30000058013958
 31
0.0
  0
TEXT
  5
10D
330
E6
100
AcDbEntity
  8
JISSEN
 62
     3
100
AcDbText
 10
61.98386765794011
 20
6.90135357766384
 30
0.0
 40
3.0
  1
記号
  7
K
 72
     4
 11
65.18386765794011
 21
8.40135357766384
 31
0.0
100
AcDbText
  0
TEXT
  5
10E
330
E6
100
AcDbEntity
  8
SUNPOU
100
AcDbText
 10
70.06515856796489
 20
6.971257904423296
 30
0.0
 40
3.0
  1
変更数
  7
K
100
AcDbText
  0
TEXT
  5
10F
330
E6
100
AcDbEntity
  8
JISSEN
 62
     3
100
AcDbText
 10
104.1270942561235
 20
7.311125871739832
 30
0.0
 40
3.0
  1
変更内容・理由
  7
K
 72
     4
 11
116.2270942561235
 21
8.811125871739832
 31
0.0
100
AcDbText
  0
TEXT
  5
110
330
E6
100
AcDbEntity
  8
JISSEN
 62
     3
100
AcDbText
 10
156.8364001978185
 20
7.311125871739946
 30
0.0
 40
3.0
  1
設変番号
  7
K
 72
     4
 11
163.6364001978185
 21
8.811125871739946
 31
0.0
100
AcDbText
  0
TEXT
  5
111
330
E6
100
AcDbEntity
  8
JISSEN
 62
     3
100
AcDbText
 10
172.4709071627829
 20
7.04591516153279
 30
0.0
 40
3.0
  1
 年 月 日
  7
K
 72
     4
 11
180.8709071627829
 21
8.545915161532789
 31
0.0
100
AcDbText
  0
TEXT
  5
112
330
E6
100
AcDbEntity
  8
JISSEN
 62
     3
100
AcDbText
 10
190.0006859121043
 20
7.045915161532676
 30
0.0
 40
3.0
  1
担当
  7
K
 72
     4
 11
193.1364001978185
 21
8.545915161532676
 31
0.0
100
AcDbText
  0
TEXT
  5
113
330
E6
100
AcDbEntity
  8
JISSEN
 62
     3
100
AcDbText
 10
199.0364001978185
 20
7.045915161532676
 30
0.0
 40
3.0
  1
検図
  7
K
 72
     4
 11
202.1364001978185
 21
8.545915161532676
 31
0.0
100
AcDbText
  0
LINE
  5
114
330
E6
100
AcDbEntity
  8
JISSEN
 62
     3
100
AcDbLine
 10
206.6364001978185
 20
16.80000058013959
 30
0.0
 11
60.42817834040497
 21
16.80000058013959
 31
0.0
  0
LINE
  5
115
330
E6
100
AcDbEntity
  8
JISSEN
 62
     3
100
AcDbLine
 10
60.42817834040497
 20
22.30000058013958
 30
0.0
 11
206.6364001978185
 21
22.30000058013958
 31
0.0
  0
LINE
  5
116
330
E6
100
AcDbEntity
  8
JISSEN
 62
     3
100
AcDbLine
 10
197.6364001978185
 20
5.800000580139581
 30
0.0
 11
197.6364001978185
 21
33.30000058013958
 31
0.0
  0
LINE
  5
117
330
E6
100
AcDbEntity
  8
JISSEN
 62
     3
100
AcDbLine
 10
188.6364001978185
 20
33.30000058013958
 30
0.0
 11
188.6364001978185
 21
5.800000580139581
 31
0.0
  0
LINE
  5
118
330
E6
100
AcDbEntity
  8
JISSEN
 62
     3
100
AcDbLine
 10
173.6364001978185
 20
5.800000580139581
 30
0.0
 11
173.6364001978185
 21
33.30000058013958
 31
0.0
  0
LINE
  5
119
330
E6
100
AcDbEntity
  8
JISSEN
 62
     3
100
AcDbLine
 10
153.6364001978185
 20
33.30000058013958
 30
0.0
 11
153.6364001978185
 21
5.800000580139581
 31
0.0
  0
LINE
  5
11A
330
E6
100
AcDbEntity
  8
JISSEN
 62
     3
100
AcDbLine
 10
60.42817834040497
 20
27.80000058013959
 30
0.0
 11
206.6364001978185
 21
27.80000058013958
 31
0.0
  0
LINE
  5
11B
330
E6
100
AcDbEntity
  8
JISSEN
 62
     3
100
AcDbLine
 10
60.42817834040497
 20
33.30000058013958
 30
0.0
 11
206.6364001978185
 21
33.30000058013958
 31
0.0
  0
LINE
  5
11C
330
E6
100
AcDbEntity
  8
SUNPOU
100
AcDbLine
 10
331.6400001978187
 20
31.80000058013956
 30
0.0
 11
331.6400001978186
 21
16.80000058013957
 31
0.0
  0
TEXT
  5
11D
330
E6
100
AcDbEntity
  8
SUNPOU
100
AcDbText
 10
251.1951238683838
 20
10.60833342026347
 30
0.0
 40
2.0
  1
1000以下
 41
0.8
  7
K
 72
     2
 11
260.7036952969552
 21
11.60833342026347
 31
0.0
100
AcDbText
 73
     2
  0
TEXT
  5
11E
330
E6
100
AcDbEntity
  8
SUNPOU
100
AcDbText
 10
252.7189333921934
 20
14.48055531367941
 30
0.0
 40
2.0
  1
315以下
 41
0.8
  7
K
 72
     2
 11
260.7036952969552
 21
15.48055531367941
 31
0.0
100
AcDbText
 73
     2
  0
TEXT
  5
11F
330
E6
100
AcDbEntity
  8
SUNPOU
100
AcDbText
 10
242.5864001978187
 20
33.30555383405114
 30
0.0
 40
2.7
  1
呼 ビ 寸 法
  7
K
 72
     1
 11
251.1364001978187
 21
34.65555383405114
 31
0.0
100
AcDbText
 73
     2
  0
TEXT
  5
120
330
E6
100
AcDbEntity
  8
SUNPOU
100
AcDbText
 10
251.1951238683838
 20
6.736111526847537
 30
0.0
 40
2.0
  1
2000以下
 41
0.8
  7
K
 72
     2
 11
260.7036952969552
 21
7.736111526847537
 31
0.0
100
AcDbText
 73
     2
  0
LINE
  5
121
330
E6
100
AcDbEntity
  8
SUNPOU
100
AcDbLine
 10
240.6364001978187
 20
32.90555383405115
 30
0.0
 11
282.6364001978187
 21
32.90555383405115
 31
0.0
  0
LINE
  5
122
330
E6
100
AcDbEntity
  8
SUNPOU
100
AcDbLine
 10
240.6364001978187
 20
29.0333319406352
 30
0.0
 11
282.6364001978187
 21
29.0333319406352
 31
0.0
  0
LINE
  5
123
330
E6
100
AcDbEntity
  8
SUNPOU
100
AcDbLine
 10
282.6364001978187
 20
25.16111004721926
 30
0.0
 11
240.6364001978187
 21
25.16111004721926
 31
0.0
  0
LINE
  5
124
330
E6
100
AcDbEntity
  8
SUNPOU
100
AcDbLine
 10
240.6364001978187
 20
21.28888815380332
 30
0.0
 11
282.6364001978187
 21
21.28888815380332
 31
0.0
  0
LINE
  5
125
330
E6
100
AcDbEntity
  8
SUNPOU
100
AcDbLine
 10
282.6364001978187
 20
17.41666626038738
 30
0.0
 11
240.6364001978187
 21
17.41666626038738
 31
0.0
  0
LINE
  5
126
330
E6
100
AcDbEntity
  8
SUNPOU
100
AcDbLine
 10
240.6364001978187
 20
13.54444436697144
 30
0.0
 11
282.6364001978187
 21
13.54444436697144
 31
0.0
  0
LINE
  5
127
330
E6
100
AcDbEntity
  8
SUNPOU
100
AcDbLine
 10
282.6364001978187
 20
9.672222473555507
 30
0.0
 11
240.6364001978187
 21
9.672222473555507
 31
0.0
  0
LINE
  5
128
330
E6
100
AcDbEntity
  8
SUNPOU
100
AcDbLine
 10
277.1364001978187
 20
30.96944288734317
 30
0.0
 11
280.7424334571795
 21
30.96944288734317
 31
0.0
  0
TEXT
  5
129
330
E6
100
AcDbEntity
  8
SUNPOU
100
AcDbText
 10
277.1364001978187
 20
26.09722099392723
 30
0.0
 40
2.0
  1
0.2
 41
0.8
  7
K
 11
277.1364001978187
 21
27.09722099392724
 31
0.0
100
AcDbText
 73
     2
  0
LINE
  5
12A
330
E6
100
AcDbEntity
  8
WAKU
100
AcDbLine
 10
282.6364001978187
 20
36.40555383405114
 30
0.0
 11
206.6364001978187
 21
36.40555383405114
 31
0.0
  0
LINE
  5
12B
330
E6
100
AcDbEntity
  8
SUNPOU
100
AcDbLine
 10
206.6364001978187
 20
48.66851833144346
 30
0.0
 11
282.6364001978187
 21
48.66851833144346
 31
0.0
  0
LINE
  5
12C
330
E6
100
AcDbEntity
  8
SUNPOU
100
AcDbLine
 10
282.6364001978187
 20
42.53703608274725
 30
0.0
 11
206.6364001978187
 21
42.53703608274725
 31
0.0
  0
TEXT
  5
12D
330
E6
100
AcDbEntity
  8
SUNPOU
100
AcDbText
 10
220.8767110216292
 20
2.800000580139567
 30
0.0
 40
2.6
  1
複写図面配布先： 購買  →発注先　製造部　品質保証部　 開発部
  7
K
100
AcDbText
  0
LINE
  5
12E
330
E6
100
AcDbEntity
  8
SUNPOU
100
AcDbLine
 10
238.0000001978187
 20
54.80000058013956
 30
0.0
 11
238.0000001978187
 21
36.40555383405114
 31
0.0
  0
LINE
  5
12F
330
E6
100
AcDbEntity
  8
WAKU
100
AcDbLine
 10
206.6364001978185
 20
54.80000058013956
 30
0.0
 11
206.6364001978185
 21
5.800000580139567
 31
0.0
  0
TEXT
  5
130
330
E6
100
AcDbEntity
  8
SUNPOU
100
AcDbText
 10
385.133333531152
 20
134.4013427441629
 30
0.0
 40
4.0
  1
は
  7
K
 72
     1
 11
387.0000001978187
 21
136.401342744163
 31
0.0
100
AcDbText
 73
     2
  0
TEXT
  5
131
330
E6
100
AcDbEntity
  8
SUNPOU
100
AcDbText
 10
385.133333531152
 20
139.401342744163
 30
0.0
 40
4.0
  1
図
  7
K
 72
     1
 11
387.0000001978187
 21
141.401342744163
 31
0.0
100
AcDbText
 73
     2
  0
TEXT
  5
132
330
E6
100
AcDbEntity
  8
SUNPOU
100
AcDbText
 10
385.133333531152
 20
144.401342744163
 30
0.0
 40
4.0
  1
本
  7
K
 72
     1
 11
387.0000001978187
 21
146.401342744163
 31
0.0
100
AcDbText
 73
     2
  0
TEXT
  5
133
330
E6
100
AcDbEntity
  8
SUNPOU
100
AcDbText
 10
385.2666668644853
 20
129.4013427441629
 30
0.0
 40
4.0
  1
用
  7
K
 72
     1
 11
387.0000001978187
 21
131.4013427441629
 31
0.0
100
AcDbText
 73
     2
  0
TEXT
  5
134
330
E6
100
AcDbEntity
  8
SUNPOU
100
AcDbText
 10
385.133333531152
 20
124.401342744163
 30
0.0
 40
4.0
  1
済
  7
K
 72
     1
 11
387.0000001978187
 21
126.401342744163
 31
0.0
100
AcDbText
 73
     2
  0
TEXT
  5
135
330
E6
100
AcDbEntity
  8
SUNPOU
100
AcDbText
 10
387.9256956900239
 20
111.0049708589015
 30
0.0
 40
4.0
  1
、
  7
K
 72
     1
 11
388.4590290233573
 21
113.0049708589015
 31
0.0
100
AcDbText
 73
     2
  0
TEXT
  5
136
330
E6
100
AcDbEntity
  8
SUNPOU
100
AcDbText
 10
385.133333531152
 20
114.401342744163
 30
0.0
 40
4.0
  1
後
  7
K
 72
     1
 11
387.0000001978187
 21
116.401342744163
 31
0.0
100
AcDbText
 73
     2
  0
TEXT
  5
137
330
E6
100
AcDbEntity
  8
SUNPOU
100
AcDbText
 10
385.2666668644853
 20
119.401342744163
 30
0.0
 40
4.0
  1
み
  7
K
 72
     1
 11
387.0000001978187
 21
121.401342744163
 31
0.0
100
AcDbText
 73
     2
  0
TEXT
  5
138
330
E6
100
AcDbEntity
  8
SUNPOU
100
AcDbText
 10
385.133333531152
 20
99.40134274416301
 30
0.0
 40
4.0
  1
ず
  7
K
 72
     1
 11
387.0000001978187
 21
101.401342744163
 31
0.0
100
AcDbText
 73
     2
  0
TEXT
  5
139
330
E6
100
AcDbEntity
  8
SUNPOU
100
AcDbText
 10
385.133333531152
 20
104.4013427441629
 30
0.0
 40
4.0
  1
必
  7
K
 72
     1
 11
387.0000001978187
 21
106.4013427441629
 31
0.0
100
AcDbText
 73
     2
  0
TEXT
  5
13A
330
E6
100
AcDbEntity
  8
SUNPOU
100
AcDbText
 10
385.133333531152
 20
89.40134274416299
 30
0.0
 40
4.0
  1
行
  7
K
 72
     1
 11
387.0000001978187
 21
91.401342744163
 31
0.0
100
AcDbText
 73
     2
  0
TEXT
  5
13B
330
E6
100
AcDbEntity
  8
SUNPOU
100
AcDbText
 10
385.133333531152
 20
94.40134274416299
 30
0.0
 40
4.0
  1
発
  7
K
 72
     1
 11
387.0000001978187
 21
96.401342744163
 31
0.0
100
AcDbText
 73
     2
  0
TEXT
  5
13C
330
E6
100
AcDbEntity
  8
SUNPOU
100
AcDbText
 10
385.2666668644853
 20
79.401342744163
 30
0.0
 40
4.0
  1
へ
  7
K
 72
     1
 11
387.0000001978187
 21
81.401342744163
 31
0.0
100
AcDbText
 73
     2
  0
TEXT
  5
13D
330
E6
100
AcDbEntity
  8
SUNPOU
100
AcDbText
 10
385.133333531152
 20
69.401342744163
 30
0.0
 40
4.0
  1
却
  7
K
 72
     1
 11
387.0000001978187
 21
71.401342744163
 31
0.0
100
AcDbText
 73
     2
  0
TEXT
  5
13E
330
E6
100
AcDbEntity
  8
SUNPOU
100
AcDbText
 10
385.0346251479262
 20
64.66078995636042
 30
0.0
 40
4.0
  1
の
  7
K
 72
     4
 11
386.9012918145929
 21
66.66078995636041
 31
0.0
100
AcDbText
  0
TEXT
  5
13F
330
E6
100
AcDbEntity
  8
SUNPOU
100
AcDbText
 10
385.133333531152
 20
74.401342744163
 30
0.0
 40
4.0
  1
返
  7
K
 72
     1
 11
387.0000001978187
 21
76.401342744163
 31
0.0
100
AcDbText
 73
     2
  0
TEXT
  5
140
330
E6
100
AcDbEntity
  8
SUNPOU
100
AcDbText
 10
385.133333531152
 20
84.40134274416299
 30
0.0
 40
4.0
  1
元
  7
K
 72
     1
 11
387.0000001978187
 21
86.401342744163
 31
0.0
100
AcDbText
 73
     2
  0
TEXT
  5
141
330
E6
100
AcDbEntity
  8
SUNPOU
100
AcDbText
 10
385.133333531152
 20
55.401342744163
 30
0.0
 40
4.0
  1
と
  7
K
 72
     1
 11
387.0000001978187
 21
57.401342744163
 31
0.0
100
AcDbText
 73
     2
  0
TEXT
  5
142
330
E6
100
AcDbEntity
  8
SUNPOU
100
AcDbText
 10
385.133333531152
 20
60.401342744163
 30
0.0
 40
4.0
  1
こ
  7
K
 72
     1
 11
387.0000001978187
 21
62.401342744163
 31
0.0
100
AcDbText
 73
     2
  0
TEXT
  5
143
330
E6
100
AcDbEntity
  8
SUNPOU
100
AcDbText
 10
367.0633117556899
 20
33.21726119265633
 30
0.0
 40
2.5
  1
(単位mm)
  7
K
100
AcDbText
  0
TEXT
  5
144
330
E6
100
AcDbEntity
  8
SUNPOU
100
AcDbText
 10
350.0000001978187
 20
48.80000058013957
 30
0.0
 40
3.0
  1
材 質
  7
K
100
AcDbText
  0
LINE
  5
145
330
E6
100
AcDbEntity
  8
SUNPOU
100
AcDbLine
 10
356.0000001978187
 20
31.80000058013956
 30
0.0
 11
356.0000001978187
 21
38.80000058013957
 31
0.0
  0
LINE
  5
146
330
E6
100
AcDbEntity
  8
SUNPOU
100
AcDbLine
 10
347.0000001978187
 20
38.80000058013957
 30
0.0
 11
347.0000001978187
 21
31.80000058013956
 31
0.0
  0
TEXT
  5
147
330
E6
100
AcDbEntity
  8
SUNPOU
100
AcDbText
 10
348.0000001978187
 20
33.80000058013957
 30
0.0
 40
3.0
  1
尺度
  7
K
100
AcDbText
  0
TEXT
  5
148
330
E6
100
AcDbEntity
  8
SUNPOU
100
AcDbText
 10
326.9254756723258
 20
33.80000058013957
 30
0.0
 40
3.0
  1
三 角 法
  7
K
100
AcDbText
  0
LINE
  5
149
330
E6
100
AcDbEntity
  8
SUNPOU
100
AcDbLine
 10
360.0000001978187
 20
54.80000058013956
 30
0.0
 11
360.0000001978187
 21
38.80000058013957
 31
0.0
  0
LINE
  5
14A
330
E6
100
AcDbEntity
  8
WAKU
100
AcDbLine
 10
349.0000001978187
 20
54.80000058013956
 30
0.0
 11
349.0000001978187
 21
38.80000058013957
 31
0.0
  0
LINE
  5
14B
330
E6
100
AcDbEntity
  8
WAKU
100
AcDbLine
 10
384.0000001978187
 20
54.80000058013956
 30
0.0
 11
206.6364001978185
 21
54.80000058013957
 31
0.0
  0
LINE
  5
14C
330
E6
100
AcDbEntity
  8
SUNPOU
100
AcDbLine
 10
349.0000001978187
 20
46.80000058013956
 30
0.0
 11
384.0000001978187
 21
46.80000058013956
 31
0.0
  0
CIRCLE
  5
14D
330
E6
100
AcDbEntity
  8
JISSEN
100
AcDbCircle
 10
314.3030668644854
 20
31.55000058013956
 30
0.0
 40
0.2
  0
CIRCLE
  5
14E
330
E6
100
AcDbEntity
  8
JISSEN
100
AcDbCircle
 10
308.969733531152
 20
31.55000058013956
 30
0.0
 40
0.2
  0
CIRCLE
  5
14F
330
E6
100
AcDbEntity
  8
JISSEN
100
AcDbCircle
 10
314.3030668644854
 20
23.30000058013956
 30
0.0
 40
0.2
  0
CIRCLE
  5
150
330
E6
100
AcDbEntity
  8
JISSEN
100
AcDbCircle
 10
308.969733531152
 20
23.30000058013956
 30
0.0
 40
0.2
  0
TEXT
  5
151
330
E6
100
AcDbEntity
  8
SUNPOU
100
AcDbText
 10
283.6364001978187
 20
44.80000058013956
 30
0.0
 40
3.0
  1
品名
  7
K
100
AcDbText
  0
TEXT
  5
152
330
E6
100
AcDbEntity
  8
SUNPOU
100
AcDbText
 10
283.6364001978187
 20
32.55000058013957
 30
0.0
 40
3.0
  1
設計
  7
K
100
AcDbText
  0
TEXT
  5
153
330
E6
100
AcDbEntity
  8
SUNPOU
100
AcDbText
 10
277.8506859121044
 20
33.30555383405114
 30
0.0
 40
2.7
  1
L
  7
K
 72
     1
 11
279.1364001978187
 21
34.65555383405114
 31
0.0
100
AcDbText
 73
     2
  0
TEXT
  5
154
330
E6
100
AcDbEntity
  8
SUNPOU
100
AcDbText
 10
283.6364001978187
 20
24.30000058013956
 30
0.0
 40
3.0
  1
製図
  7
K
100
AcDbText
  0
TEXT
  5
155
330
E6
100
AcDbEntity
  8
SUNPOU
100
AcDbText
 10
277.1364001978187
 20
22.2249991005113
 30
0.0
 40
2.0
  1
0.5
 41
0.8
  7
K
 11
277.1364001978187
 21
23.22499910051129
 31
0.0
100
AcDbText
 73
     2
  0
TEXT
  5
156
330
E6
100
AcDbEntity
  8
SUNPOU
100
AcDbText
 10
270.1364001978187
 20
29.96944288734317
 30
0.0
 40
2.0
  1
0.1
 41
0.8
  7
K
 11
270.1364001978187
 21
30.96944288734317
 31
0.0
100
AcDbText
 73
     2
  0
TEXT
  5
157
330
E6
100
AcDbEntity
  8
SUNPOU
100
AcDbText
 10
270.722114483533
 20
33.30555383405114
 30
0.0
 40
2.7
  1
K
  7
K
 72
     1
 11
272.1364001978187
 21
34.65555383405114
 31
0.0
100
AcDbText
 73
     2
  0
TEXT
  5
158
330
E6
100
AcDbEntity
  8
SUNPOU
100
AcDbText
 10
264.2364001978187
 20
33.30555383405114
 30
0.0
 40
2.7
  1
J
  7
K
 72
     1
 11
265.1364001978187
 21
34.65555383405114
 31
0.0
100
AcDbText
 73
     2
  0
TEXT
  5
159
330
E6
100
AcDbEntity
  8
SUNPOU
100
AcDbText
 10
263.1364001978187
 20
29.96944288734317
 30
0.0
 40
2.0
  1
0.05
 41
0.8
  7
K
 11
263.1364001978187
 21
30.96944288734317
 31
0.0
100
AcDbText
 73
     2
  0
TEXT
  5
15A
330
E6
100
AcDbEntity
  8
SUNPOU
100
AcDbText
 10
270.1364001978187
 20
26.09722099392723
 30
0.0
 40
2.0
  1
0.1
 41
0.8
  7
K
 11
270.1364001978187
 21
27.09722099392724
 31
0.0
100
AcDbText
 73
     2
  0
TEXT
  5
15B
330
E6
100
AcDbEntity
  8
SUNPOU
100
AcDbText
 10
270.1364001978187
 20
22.2249991005113
 30
0.0
 40
2.0
  1
0.2
 41
0.8
  7
K
 11
270.1364001978187
 21
23.22499910051129
 31
0.0
100
AcDbText
 73
     2
  0
TEXT
  5
15C
330
E6
100
AcDbEntity
  8
SUNPOU
100
AcDbText
 10
263.1364001978187
 20
22.2249991005113
 30
0.0
 40
2.0
  1
0.1
 41
0.8
  7
K
 11
263.1364001978187
 21
23.22499910051129
 31
0.0
100
AcDbText
 73
     2
  0
TEXT
  5
15D
330
E6
100
AcDbEntity
  8
SUNPOU
100
AcDbText
 10
263.1364001978187
 20
26.09722099392723
 30
0.0
 40
2.0
  1
0.05
 41
0.8
  7
K
 11
263.1364001978187
 21
27.09722099392724
 31
0.0
100
AcDbText
 73
     2
  0
LINE
  5
15E
330
E6
100
AcDbEntity
  8
SUNPOU
100
AcDbLine
 10
291.6364001978187
 20
54.80000058013956
 30
0.0
 11
291.6364001978187
 21
38.80000058013957
 31
0.0
  0
LINE
  5
15F
330
E6
100
AcDbEntity
  8
WAKU
100
AcDbLine
 10
282.6364001978187
 20
38.80000058013957
 30
0.0
 11
384.0000001978187
 21
38.80000058013957
 31
0.0
  0
LINE
  5
160
330
E6
100
AcDbEntity
  8
SUNPOU
100
AcDbLine
 10
282.6364001978187
 20
22.30000058013956
 30
0.0
 11
319.6364001978187
 21
22.30000058013956
 31
0.0
  0
LINE
  5
161
330
E6
100
AcDbEntity
  8
SUNPOU
100
AcDbLine
 10
319.6364001978187
 20
30.55000058013956
 30
0.0
 11
282.6364001978187
 21
30.55000058013956
 31
0.0
  0
TEXT
  5
162
330
E6
100
AcDbEntity
  8
SUNPOU
100
AcDbText
 10
322.3364001978187
 20
22.80000058013956
 30
0.0
 40
3.0
  1
図番
  7
K
 72
     4
 11
325.6364001978187
 21
24.30000058013956
 31
0.0
100
AcDbText
  0
LINE
  5
163
330
E6
100
AcDbEntity
  8
WAKU
100
AcDbLine
 10
319.6364001978187
 20
16.80000058013956
 30
0.0
 11
384.0000001978187
 21
16.80000058013956
 31
0.0
  0
LINE
  5
164
330
E6
100
AcDbEntity
  8
WAKU
100
AcDbLine
 10
384.0000001978187
 20
31.80000058013956
 30
0.0
 11
319.6364001978187
 21
31.80000058013956
 31
0.0
  0
TEXT
  5
165
330
E6
100
AcDbEntity
  8
SUNPOU
100
AcDbText
 10
336.2793184982411
 20
9.800000580139567
 30
0.0
 40
3.5
  1
中部コーポレーション
  7
K
100
AcDbText
  0
CIRCLE
  5
166
330
E6
100
AcDbEntity
  8
JISSEN
100
AcDbCircle
 10
314.3030668644854
 20
15.05000058013956
 30
0.0
 40
0.2
  0
CIRCLE
  5
167
330
E6
100
AcDbEntity
  8
JISSEN
100
AcDbCircle
 10
308.969733531152
 20
15.05000058013956
 30
0.0
 40
0.2
  0
CIRCLE
  5
168
330
E6
100
AcDbEntity
  8
JISSEN
100
AcDbCircle
 10
314.3030668644854
 20
6.800000580139567
 30
0.0
 40
0.2
  0
CIRCLE
  5
169
330
E6
100
AcDbEntity
  8
JISSEN
100
AcDbCircle
 10
308.969733531152
 20
6.800000580139567
 30
0.0
 40
0.2
  0
TEXT
  5
16A
330
E6
100
AcDbEntity
  8
SUNPOU
100
AcDbText
 10
283.6364001978187
 20
7.800000580139567
 30
0.0
 40
3.0
  1
承認
  7
K
100
AcDbText
  0
TEXT
  5
16B
330
E6
100
AcDbEntity
  8
SUNPOU
100
AcDbText
 10
277.1364001978187
 20
10.60833342026347
 30
0.0
 40
2.0
  1
2
 41
0.8
  7
K
 11
277.1364001978187
 21
11.60833342026347
 31
0.0
100
AcDbText
 73
     2
  0
TEXT
  5
16C
330
E6
100
AcDbEntity
  8
SUNPOU
100
AcDbText
 10
277.1364001978187
 20
14.48055531367941
 30
0.0
 40
2.0
  1
1.2
 41
0.8
  7
K
 11
277.1364001978187
 21
15.48055531367941
 31
0.0
100
AcDbText
 73
     2
  0
TEXT
  5
16D
330
E6
100
AcDbEntity
  8
SUNPOU
100
AcDbText
 10
277.1364001978187
 20
6.736111526847537
 30
0.0
 40
2.0
  1
3
 41
0.8
  7
K
 11
277.1364001978187
 21
7.736111526847537
 31
0.0
100
AcDbText
 73
     2
  0
TEXT
  5
16E
330
E6
100
AcDbEntity
  8
SUNPOU
100
AcDbText
 10
270.1364001978187
 20
14.48055531367941
 30
0.0
 40
2.0
  1
0.5
 41
0.8
  7
K
 11
270.1364001978187
 21
15.48055531367941
 31
0.0
100
AcDbText
 73
     2
  0
TEXT
  5
16F
330
E6
100
AcDbEntity
  8
SUNPOU
100
AcDbText
 10
270.1364001978187
 20
10.60833342026347
 30
0.0
 40
2.0
  1
0.8
 41
0.8
  7
K
 11
270.1364001978187
 21
11.60833342026347
 31
0.0
100
AcDbText
 73
     2
  0
TEXT
  5
170
330
E6
100
AcDbEntity
  8
SUNPOU
100
AcDbText
 10
263.1364001978187
 20
10.60833342026347
 30
0.0
 40
2.0
  1
0.3
 41
0.8
  7
K
 11
263.1364001978187
 21
11.60833342026347
 31
0.0
100
AcDbText
 73
     2
  0
TEXT
  5
171
330
E6
100
AcDbEntity
  8
SUNPOU
100
AcDbText
 10
263.1364001978187
 20
14.48055531367941
 30
0.0
 40
2.0
  1
0.2
 41
0.8
  7
K
 11
263.1364001978187
 21
15.48055531367941
 31
0.0
100
AcDbText
 73
     2
  0
TEXT
  5
172
330
E6
100
AcDbEntity
  8
SUNPOU
100
AcDbText
 10
270.1364001978187
 20
6.736111526847537
 30
0.0
 40
2.0
  1
1.2
 41
0.8
  7
K
 11
270.1364001978187
 21
7.736111526847537
 31
0.0
100
AcDbText
 73
     2
  0
TEXT
  5
173
330
E6
100
AcDbEntity
  8
SUNPOU
100
AcDbText
 10
263.1364001978187
 20
6.736111526847537
 30
0.0
 40
2.0
  1
0.5
 41
0.8
  7
K
 11
263.1364001978187
 21
7.736111526847537
 31
0.0
100
AcDbText
 73
     2
  0
LINE
  5
174
330
E6
100
AcDbEntity
  8
SUNPOU
100
AcDbLine
 10
319.6364001978187
 20
14.05000058013956
 30
0.0
 11
282.6364001978187
 21
14.05000058013956
 31
0.0
  0
TEXT
  5
175
330
E6
100
AcDbEntity
  8
SUNPOU
100
AcDbText
 10
326.3033674213227
 20
9.800000580139567
 30
0.0
 40
2.0
  1
株式会社
  7
K
100
AcDbText
  0
TEXT
  5
176
330
E6
100
AcDbEntity
  8
SUNPOU
100
AcDbText
 10
277.1364001978187
 20
18.35277720709535
 30
0.0
 40
2.0
  1
0.8
 41
0.8
  7
K
 11
277.1364001978187
 21
19.35277720709535
 31
0.0
100
AcDbText
 73
     2
  0
TEXT
  5
177
330
E6
100
AcDbEntity
  8
SUNPOU
100
AcDbText
 10
270.1364001978187
 20
18.35277720709535
 30
0.0
 40
2.0
  1
0.3
 41
0.8
  7
K
 11
270.1364001978187
 21
19.35277720709535
 31
0.0
100
AcDbText
 73
     2
  0
TEXT
  5
178
330
E6
100
AcDbEntity
  8
SUNPOU
100
AcDbText
 10
263.1364001978187
 20
18.35277720709535
 30
0.0
 40
2.0
  1
0.15
 41
0.8
  7
K
 11
263.1364001978187
 21
19.35277720709535
 31
0.0
100
AcDbText
 73
     2
  0
LINE
  5
179
330
E6
100
AcDbEntity
  8
WAKU
100
AcDbLine
 10
319.6364001978187
 20
5.800000580139567
 30
0.0
 11
319.6364001978187
 21
38.80000058013957
 31
0.0
  0
LINE
  5
17A
330
E6
100
AcDbEntity
  8
SUNPOU
100
AcDbLine
 10
303.6364001978187
 20
38.80000058013957
 30
0.0
 11
303.6364001978187
 21
5.800000580139567
 31
0.0
  0
TEXT
  5
17B
330
E6
100
AcDbEntity
  8
SUNPOU
100
AcDbText
 10
283.6364001978187
 20
16.05000058013956
 30
0.0
 40
3.0
  1
検図
  7
K
100
AcDbText
  0
LINE
  5
17C
330
E6
100
AcDbEntity
  8
WAKU
100
AcDbLine
 10
282.6364001978187
 20
5.800000580139567
 30
0.0
 11
282.6364001978187
 21
54.80000058013956
 31
0.0
  0
LINE
  5
17D
330
E6
100
AcDbEntity
  8
SUNPOU
100
AcDbLine
 10
291.6364001978187
 20
38.80000058013957
 30
0.0
 11
291.6364001978187
 21
5.800000580139567
 31
0.0
  0
LINE
  5
17E
330
E6
100
AcDbEntity
  8
SUNPOU
100
AcDbLine
 10
268.6364001978187
 20
5.800000580139567
 30
0.0
 11
268.6364001978187
 21
36.40555383405114
 31
0.0
  0
LINE
  5
17F
330
E6
100
AcDbEntity
  8
SUNPOU
100
AcDbLine
 10
275.6364001978187
 20
36.40555383405114
 30
0.0
 11
275.6364001978187
 21
5.800000580139567
 31
0.0
  0
LINE
  5
180
330
E6
100
AcDbEntity
  8
SUNPOU
100
AcDbLine
 10
261.6364001978187
 20
36.40555383405114
 30
0.0
 11
261.6364001978187
 21
5.800000580139567
 31
0.0
  0
TEXT
  5
181
330
E6
100
AcDbEntity
  8
SUNPOU
100
AcDbText
 10
242.844845694525
 20
29.96944288734317
 30
0.0
 40
2.0
  1
0.5以上
 41
0.8
  7
K
 72
     2
 11
250.0677028373821
 21
30.96944288734317
 31
0.0
100
AcDbText
 73
     2
  0
TEXT
  5
182
330
E6
100
AcDbEntity
  8
SUNPOU
100
AcDbText
 10
245.9838933135726
 20
22.2249991005113
 30
0.0
 40
2.0
  1
6ｦｺｴ
 41
0.8
  7
K
 72
     2
 11
250.0677028373821
 21
23.22499910051129
 31
0.0
100
AcDbText
 73
     2
  0
TEXT
  5
183
330
E6
100
AcDbEntity
  8
SUNPOU
100
AcDbText
 10
245.9838933135726
 20
26.09722099392723
 30
0.0
 40
2.0
  1
3ｦｺｴ
 41
0.8
  7
K
 72
     2
 11
250.0677028373821
 21
27.09722099392724
 31
0.0
100
AcDbText
 73
     2
  0
TEXT
  5
184
330
E6
100
AcDbEntity
  8
SUNPOU
100
AcDbText
 10
235.8764001978187
 20
24.90873758818833
 30
0.0
 40
2.7
  1
通
  7
K
 72
     1
 11
237.1364001978187
 21
24.90873758818833
 31
0.0
100
AcDbText
  0
TEXT
  5
185
330
E6
100
AcDbEntity
  8
SUNPOU
100
AcDbText
 10
235.8764001978187
 20
21.8087375881883
 30
0.0
 40
2.7
  1
寸
  7
K
 72
     1
 11
237.1364001978187
 21
21.8087375881883
 31
0.0
100
AcDbText
  0
TEXT
  5
186
330
E6
100
AcDbEntity
  8
SUNPOU
100
AcDbText
 10
235.8764001978187
 20
18.70873758818834
 30
0.0
 40
2.7
  1
法
  7
K
 72
     1
 11
237.1364001978187
 21
18.70873758818834
 31
0.0
100
AcDbText
  0
TEXT
  5
187
330
E6
100
AcDbEntity
  8
SUNPOU
100
AcDbText
 10
235.8764001978187
 20
28.00873758818829
 30
0.0
 40
2.7
  1
普
  7
K
 72
     1
 11
237.1364001978187
 21
28.00873758818829
 31
0.0
100
AcDbText
  0
TEXT
  5
188
330
E6
100
AcDbEntity
  8
SUNPOU
100
AcDbText
 10
209.7021866584479
 20
44.10277720709536
 30
0.0
 40
3.0
  1
色調
  7
K
 11
209.7021866584479
 21
45.60277720709535
 31
0.0
100
AcDbText
 73
     2
  0
TEXT
  5
189
330
E6
100
AcDbEntity
  8
SUNPOU
100
AcDbText
 10
209.7021866584479
 20
50.23425945579152
 30
0.0
 40
3.0
  1
表面処理
  7
K
 11
209.7021866584479
 21
51.73425945579151
 31
0.0
100
AcDbText
 73
     2
  0
TEXT
  5
18A
330
E6
100
AcDbEntity
  8
SUNPOU
100
AcDbText
 10
208.1364001978187
 20
21.78662987279364
 30
0.0
 40
2.0
  1
▽▽▽▽
  7
K
 11
208.1364001978187
 21
22.78662987279364
 31
0.0
100
AcDbText
 73
     2
  0
TEXT
  5
18B
330
E6
100
AcDbEntity
  8
SUNPOU
100
AcDbText
 10
209.7021866584479
 20
37.9712949583992
 30
0.0
 40
3.0
  1
適用規格など
  7
K
 11
209.7021866584479
 21
39.4712949583992
 31
0.0
100
AcDbText
 73
     2
  0
LINE
  5
18C
330
E6
100
AcDbEntity
  8
SUNPOU
100
AcDbLine
 10
206.6364001978187
 20
30.48296499029049
 30
0.0
 11
233.6364001978187
 21
30.48296499029049
 31
0.0
  0
LINE
  5
18D
330
E6
100
AcDbEntity
  8
SUNPOU
100
AcDbLine
 10
206.6364001978187
 20
24.67403312753299
 30
0.0
 11
233.6364001978187
 21
24.67403312753299
 31
0.0
  0
TEXT
  5
18E
330
E6
100
AcDbEntity
  8
SUNPOU
100
AcDbText
 10
208.1364001978187
 20
31.94425941217082
 30
0.0
 40
3.0
  1
標準加工アラサ
  7
K
 72
     4
 11
220.1364001978187
 21
33.44425941217082
 31
0.0
100
AcDbText
  0
TEXT
  5
18F
330
E6
100
AcDbEntity
  8
SUNPOU
100
AcDbText
 10
208.4564001978187
 20
26.32630256812199
 30
0.0
 40
3.0
  1
(標準外ﾊ指定ﾉｺﾄ)
 41
0.8
  7
K
 72
     4
 11
220.1364001978187
 21
27.61201685383628
 31
0.0
100
AcDbText
  0
TEXT
  5
190
330
E6
100
AcDbEntity
  8
SUNPOU
100
AcDbText
 10
225.7554478168663
 20
21.78662987279364
 30
0.0
 40
2.0
  1
0.8Z
  7
K
 72
     2
 11
232.1364001978187
 21
22.78662987279364
 31
0.0
100
AcDbText
 73
     2
  0
TEXT
  5
191
330
E6
100
AcDbEntity
  8
SUNPOU
100
AcDbText
 10
242.9362742659536
 20
10.60833342026347
 30
0.0
 40
2.0
  1
315ｦｺｴ
 41
0.8
  7
K
 72
     2
 11
250.0677028373821
 21
11.60833342026347
 31
0.0
100
AcDbText
 73
     2
  0
TEXT
  5
192
330
E6
100
AcDbEntity
  8
SUNPOU
100
AcDbText
 10
242.9362742659536
 20
14.48055531367941
 30
0.0
 40
2.0
  1
120ｦｺｴ
 41
0.8
  7
K
 72
     2
 11
250.0677028373821
 21
15.48055531367941
 31
0.0
100
AcDbText
 73
     2
  0
TEXT
  5
193
330
E6
100
AcDbEntity
  8
SUNPOU
100
AcDbText
 10
239.2599288493162
 20
10.96190464610896
 30
0.0
 40
2.0
  1
)
  7
K
 11
239.2599288493162
 21
11.96190464610896
 31
0.0
100
AcDbText
 73
     2
  0
TEXT
  5
194
330
E6
100
AcDbEntity
  8
SUNPOU
100
AcDbText
 10
236.2030668644854
 20
11.96190464610896
 30
0.0
 40
2.0
  1
±
  7
K
 72
     1
 11
237.1364001978187
 21
11.96190464610896
 31
0.0
100
AcDbText
  0
TEXT
  5
195
330
E6
100
AcDbEntity
  8
SUNPOU
100
AcDbText
 10
234.9935430549616
 20
10.04345972235012
 30
0.0
 40
1.5
  1
mm
  7
K
 72
     1
 11
237.1364001978187
 21
10.04345972235012
 31
0.0
100
AcDbText
  0
TEXT
  5
196
330
E6
100
AcDbEntity
  8
SUNPOU
100
AcDbText
 10
235.8764001978187
 20
15.60873758818831
 30
0.0
 40
2.7
  1
差
  7
K
 72
     1
 11
237.1364001978187
 21
15.60873758818831
 31
0.0
100
AcDbText
  0
TEXT
  5
197
330
E6
100
AcDbEntity
  8
SUNPOU
100
AcDbText
 10
226.7078287692473
 20
14.23701685383628
 30
0.0
 40
2.0
  1
25Z
  7
K
 72
     2
 11
232.1364001978187
 21
15.23701685383628
 31
0.0
100
AcDbText
 73
     2
  0
TEXT
  5
198
330
E6
100
AcDbEntity
  8
SUNPOU
100
AcDbText
 10
233.5887811501997
 20
10.96190464610896
 30
0.0
 40
2.0
  1
(
  7
K
 72
     2
 11
234.6364001978187
 21
11.96190464610896
 31
0.0
100
AcDbText
 73
     2
  0
TEXT
  5
199
330
E6
100
AcDbEntity
  8
SUNPOU
100
AcDbText
 10
241.4124647421441
 20
6.736111526847537
 30
0.0
 40
2.0
  1
1000ｦｺｴ
 41
0.8
  7
K
 72
     2
 11
250.0677028373821
 21
7.736111526847537
 31
0.0
100
AcDbText
 73
     2
  0
TEXT
  5
19A
330
E6
100
AcDbEntity
  8
SUNPOU
100
AcDbText
 10
208.1364001978187
 20
14.23701685383628
 30
0.0
 40
2.0
  1
▽▽
  7
K
 11
208.1364001978187
 21
15.23701685383628
 31
0.0
100
AcDbText
 73
     2
  0
TEXT
  5
19B
330
E6
100
AcDbEntity
  8
SUNPOU
100
AcDbText
 10
208.1364001978187
 20
10.46221034435757
 30
0.0
 40
2.0
  1
▽
  7
K
 11
208.1364001978187
 21
11.46221034435757
 31
0.0
100
AcDbText
 73
     2
  0
TEXT
  5
19C
330
E6
100
AcDbEntity
  8
SUNPOU
100
AcDbText
 10
208.1364001978187
 20
6.687403834878921
 30
0.0
 40
2.0
  1
～
  7
K
 11
208.1364001978187
 21
7.687403834878921
 31
0.0
100
AcDbText
 73
     2
  0
TEXT
  5
19D
330
E6
100
AcDbEntity
  8
SUNPOU
100
AcDbText
 10
220.8767110216292
 20
0.000000580139556
 30
0.0
 40
2.399999999999999
  1
（必要に応じて追加・抹消）
  7
K
100
AcDbText
  0
TEXT
  5
19E
330
E6
100
AcDbEntity
  8
SUNPOU
100
AcDbText
 10
224.8030668644854
 20
10.46221034435757
 30
0.0
 40
2.0
  1
100Z
  7
K
 72
     2
 11
232.1364001978187
 21
11.46221034435757
 31
0.0
100
AcDbText
 73
     2
  0
TEXT
  5
19F
330
E6
100
AcDbEntity
  8
SUNPOU
100
AcDbText
 10
244.4600837897631
 20
18.35277720709535
 30
0.0
 40
2.0
  1
30ｦｺｴ
 41
0.8
  7
K
 72
     2
 11
250.0677028373821
 21
19.35277720709535
 31
0.0
100
AcDbText
 73
     2
  0
TEXT
  5
1A0
330
E6
100
AcDbEntity
  8
SUNPOU
100
AcDbText
 10
225.7554478168663
 20
18.01182336331498
 30
0.0
 40
2.0
  1
6.3Z
  7
K
 72
     2
 11
232.1364001978187
 21
19.01182336331499
 31
0.0
100
AcDbText
 73
     2
  0
TEXT
  5
1A1
330
E6
100
AcDbEntity
  8
SUNPOU
100
AcDbText
 10
208.1364001978187
 20
18.01182336331498
 30
0.0
 40
2.0
  1
▽▽▽
  7
K
 11
208.1364001978187
 21
19.01182336331499
 31
0.0
100
AcDbText
 73
     2
  0
LINE
  5
1A2
330
E6
100
AcDbEntity
  8
SUNPOU
100
AcDbLine
 10
233.6364001978187
 20
36.40555383405114
 30
0.0
 11
233.6364001978187
 21
5.800000580139567
 31
0.0
  0
LINE
  5
1A3
330
E6
100
AcDbEntity
  8
SUNPOU
100
AcDbLine
 10
240.6364001978187
 20
36.40555383405114
 30
0.0
 11
240.6364001978187
 21
5.800000580139567
 31
0.0
  0
TEXT
  5
1A4
330
E6
100
AcDbEntity
  8
SUNPOU
100
AcDbText
 10
255.7665524398124
 20
29.96944288734317
 30
0.0
 40
2.0
  1
3以下
 41
0.8
  7
K
 72
     2
 11
260.7036952969552
 21
30.96944288734317
 31
0.0
100
AcDbText
 73
     2
  0
TEXT
  5
1A5
330
E6
100
AcDbEntity
  8
SUNPOU
100
AcDbText
 10
255.7665524398124
 20
26.09722099392723
 30
0.0
 40
2.0
  1
6以下
 41
0.8
  7
K
 72
     2
 11
260.7036952969552
 21
27.09722099392724
 31
0.0
100
AcDbText
 73
     2
  0
TEXT
  5
1A6
330
E6
100
AcDbEntity
  8
SUNPOU
100
AcDbText
 10
254.2427429160028
 20
22.2249991005113
 30
0.0
 40
2.0
  1
30以下
 41
0.8
  7
K
 72
     2
 11
260.7036952969552
 21
23.22499910051129
 31
0.0
100
AcDbText
 73
     2
  0
TEXT
  5
1A7
330
E6
100
AcDbEntity
  8
SUNPOU
100
AcDbText
 10
252.7189333921934
 20
18.35277720709535
 30
0.0
 40
2.0
  1
120以下
 41
0.8
  7
K
 72
     2
 11
260.7036952969552
 21
19.35277720709535
 31
0.0
100
AcDbText
 73
     2
  0
LINE
  5
1A8
330
E6
100
AcDbEntity
  8
WAKU
100
AcDbLine
 10
3.000000197818735
 20
268.8000005801395
 30
0.0
 11
384.0000001978187
 21
268.8000005801395
 31
0.0
  0
LINE
  5
1A9
330
E6
100
AcDbEntity
  8
WAKU
100
AcDbLine
 10
384.0000001978187
 20
5.800000580139567
 30
0.0
 11
3.000000197818735
 21
5.800000580139567
 31
0.0
  0
LINE
  5
1AA
330
E6
100
AcDbEntity
  8
WAKU
100
AcDbLine
 10
3.000000197818735
 20
5.800000580139567
 30
0.0
 11
3.000000197818735
 21
268.8000005801395
 31
0.0
  0
LINE
  5
1AB
330
E6
100
AcDbEntity
  8
WAKU
100
AcDbLine
 10
3.000000197818735
 20
138.8000005801395
 30
0.0
 11
0.0000001978187356
 21
138.8000005801395
 31
0.0
  0
LINE
  5
1AC
330
E6
100
AcDbEntity
  8
WAKU
100
AcDbLine
 10
384.0000001978187
 20
268.8000005801395
 30
0.0
 11
384.0000001978187
 21
5.800000580139567
 31
0.0
  0
ENDBLK
  5
1AE
330
E6
100
AcDbEntity
  8
0
100
AcDbBlockEnd
  0
BLOCK
  5
D4C
330
D4B
100
AcDbEntity
  8
0
100
AcDbBlockBegin
  2
_IMCADLT3
 70
     0
 10
0.0
 20
0.0
 30
0.0
  3
_IMCADLT3
  1

  0
ENDBLK
  5
D4D
330
D4B
100
AcDbEntity
  8
0
100
AcDbBlockEnd
  0
BLOCK
  5
1055
330
1053
100
AcDbEntity
  8
0
100
AcDbBlockBegin
  2
GENAXEH
 70
     0
 10
0.0
 20
0.0
 30
0.0
  3
GENAXEH
  1

  0
LINE
  5
1054
330
1053
100
AcDbEntity
  8
0
100
AcDbLine
 10
-1.0
 20
0.0
 30
0.0
 11
1.0
 21
0.0
 31
0.0
  0
ENDBLK
  5
1056
330
1053
100
AcDbEntity
  8
0
100
AcDbBlockEnd
  0
BLOCK
  5
39E7
330
39E6
100
AcDbEntity
  8
0
100
AcDbBlockBegin
  2
1
 70
     0
 10
0.0
 20
0.0
 30
0.0
  3
1
  1

  0
ELLIPSE
  5
39E9
330
39E6
100
AcDbEntity
  8
JISSEN
100
AcDbEllipse
 10
1817.226190651424
 20
4928.810805308291
 30
0.0
 11
0.0
 21
8.0
 31
0.0
210
0.0
220
0.0
230
-1.0
 40
0.4240039983278504
 41
3.064463576189563
 42
6.360314384585276
  0
ELLIPSE
  5
39EA
330
39E6
100
AcDbEntity
  8
JISSEN
100
AcDbEllipse
 10
1817.748920609224
 20
4928.810805308291
 30
0.0
 11
0.0
 21
8.0
 31
0.0
210
0.0
220
0.0
230
-1.0
 40
0.4240039983278504
 41
0.0
 42
6.283185307179586
  0
LINE
  5
39EB
330
39E6
100
AcDbEntity
  8
JISSEN
100
AcDbLine
 10
1831.977911541799
 20
4941.81080530829
 30
0.0
 11
1831.977911541799
 21
4933.81080530829
 31
0.0
  0
LINE
  5
39EC
330
39E6
100
AcDbEntity
  8
JISSEN
100
AcDbLine
 10
1803.519929676649
 20
4959.810805308291
 30
0.0
 11
1803.519929676649
 21
4861.810805308291
 31
0.0
  0
LINE
  5
39ED
330
39E6
100
AcDbEntity
  8
JISSEN
100
AcDbLine
 10
1801.911244875133
 20
4959.810805308291
 30
0.0
 11
1801.911244875133
 21
4861.810805308291
 31
0.0
  0
LINE
  5
39EE
330
39E6
100
AcDbEntity
  8
JISSEN
100
AcDbLine
 10
1795.911244875133
 20
4960.810805308291
 30
0.0
 11
1795.911244875133
 21
4860.81080530829
 31
0.0
  0
LINE
  5
39EF
330
39E6
100
AcDbEntity
  8
JISSEN
100
AcDbLine
 10
1803.519929676649
 20
4897.81080530829
 30
0.0
 11
1831.977911541799
 21
4897.81080530829
 31
0.0
  0
LINE
  5
39F0
330
39E6
100
AcDbEntity
  8
JISSEN
100
AcDbLine
 10
1803.519929676649
 20
4887.810805308291
 30
0.0
 11
1831.977911541799
 21
4887.810805308291
 31
0.0
  0
LINE
  5
39F1
330
39E6
100
AcDbEntity
  8
JISSEN
100
AcDbLine
 10
1803.519929676649
 20
4879.810805308291
 30
0.0
 11
1827.961272078839
 21
4879.810805308291
 31
0.0
  0
LINE
  5
39F2
330
39E6
100
AcDbEntity
  8
JISSEN
100
AcDbLine
 10
1803.519929676649
 20
4905.81080530829
 30
0.0
 11
1823.590308538862
 21
4905.81080530829
 31
0.0
  0
LINE
  5
39F3
330
39E6
100
AcDbEntity
  8
JISSEN
100
AcDbLine
 10
1803.519929676649
 20
4915.81080530829
 30
0.0
 11
1823.590308538862
 21
4915.81080530829
 31
0.0
  0
LINE
  5
39F4
330
39E6
100
AcDbEntity
  8
JISSEN
100
AcDbLine
 10
1803.519929676649
 20
4923.81080530829
 30
0.0
 11
1814.578286530554
 21
4923.81080530829
 31
0.0
  0
LINE
  5
39F5
330
39E6
100
AcDbEntity
  8
JISSEN
100
AcDbLine
 10
1803.519929676649
 20
4933.81080530829
 30
0.0
 11
1814.578286530554
 21
4933.81080530829
 31
0.0
  0
LINE
  5
39F6
330
39E6
100
AcDbEntity
  8
JISSEN
100
AcDbLine
 10
1831.977911541799
 20
4861.810805308291
 30
0.0
 11
1801.911244875133
 21
4861.810805308291
 31
0.0
  0
LINE
  5
39F7
330
39E6
100
AcDbEntity
  8
JISSEN
100
AcDbLine
 10
1803.519929676649
 20
4869.81080530829
 30
0.0
 11
1827.961272078839
 21
4869.81080530829
 31
0.0
  0
LINE
  5
39F8
330
39E6
100
AcDbEntity
  8
JISSEN
100
AcDbLine
 10
1801.911244875133
 20
4861.810805308291
 30
0.0
 11
1795.911244875133
 21
4860.810805308291
 31
0.0
  0
LINE
  5
39F9
330
39E6
100
AcDbEntity
  8
JISSEN
100
AcDbLine
 10
1825.977911541799
 20
4902.810805308291
 30
0.0
 11
1825.977911541799
 21
4900.81080530829
 31
0.0
  0
LINE
  5
39FA
330
39E6
100
AcDbEntity
  8
JISSEN
100
AcDbLine
 10
1833.977911541799
 20
4920.810805308291
 30
0.0
 11
1833.977911541799
 21
4900.810805308291
 31
0.0
  0
LINE
  5
39FB
330
39E6
100
AcDbEntity
  8
JISSEN
100
AcDbLine
 10
1831.977911541799
 20
4900.810805308291
 30
0.0
 11
1831.977911541799
 21
4897.81080530829
 31
0.0
  0
LINE
  5
39FC
330
39E6
100
AcDbEntity
  8
JISSEN
100
AcDbLine
 10
1831.977911541799
 20
4887.810805308291
 30
0.0
 11
1831.977911541799
 21
4880.58804660707
 31
0.0
  0
LINE
  5
39FD
330
39E6
100
AcDbEntity
  8
JISSEN
100
AcDbLine
 10
1830.540487988118
 20
4882.810805308291
 30
0.0
 11
1829.583417438488
 21
4882.810805308291
 31
0.0
  0
LINE
  5
39FE
330
39E6
100
AcDbEntity
  8
JISSEN
100
AcDbLine
 10
1833.977911541799
 20
4900.810805308291
 30
0.0
 11
1825.977911541799
 21
4900.81080530829
 31
0.0
  0
LINE
  5
39FF
330
39E6
100
AcDbEntity
  8
JISSEN
100
AcDbLine
 10
1820.396824730094
 20
4923.81080530829
 30
0.0
 11
1831.977911541799
 21
4923.81080530829
 31
0.0
  0
LINE
  5
3A00
330
39E6
100
AcDbEntity
  8
JISSEN
100
AcDbLine
 10
1820.396824730094
 20
4933.81080530829
 30
0.0
 11
1831.977911541799
 21
4933.81080530829
 31
0.0
  0
LINE
  5
3A01
330
39E6
100
AcDbEntity
  8
JISSEN
100
AcDbLine
 10
1831.977911541799
 20
4923.81080530829
 30
0.0
 11
1831.977911541799
 21
4920.810805308291
 31
0.0
  0
LINE
  5
3A02
330
39E6
100
AcDbEntity
  8
JISSEN
100
AcDbLine
 10
1826.169524448141
 20
4902.810805308291
 30
0.0
 11
1825.212453898511
 21
4902.810805308291
 31
0.0
  0
LINE
  5
3A03
330
39E6
100
AcDbEntity
  8
JISSEN
100
AcDbLine
 10
1826.169524448141
 20
4918.81080530829
 30
0.0
 11
1825.212453898511
 21
4918.81080530829
 31
0.0
  0
ELLIPSE
  5
3A04
330
39E6
100
AcDbEntity
  8
JISSEN
100
AcDbEllipse
 10
1825.212453898511
 20
4910.81080530829
 30
0.0
 11
0.0
 21
8.0
 31
0.0
210
0.0
220
0.0
230
-1.0
 40
0.2597511416441165
 41
3.141592653589793
 42
6.283185307179586
  0
ELLIPSE
  5
3A05
330
39E6
100
AcDbEntity
  8
JISSEN
100
AcDbEllipse
 10
1826.169524448141
 20
4910.81080530829
 30
0.0
 11
0.0
 21
8.0
 31
0.0
210
0.0
220
0.0
230
-1.0
 40
0.2597511416441165
 41
0.0
 42
6.283185307179586
  0
LINE
  5
3A06
330
39E6
100
AcDbEntity
  8
JISSEN
100
AcDbLine
 10
1825.977911541799
 20
4920.810805308289
 30
0.0
 11
1825.977911541799
 21
4918.776722079853
 31
0.0
  0
LINE
  5
3A07
330
39E6
100
AcDbEntity
  8
JISSEN
100
AcDbLine
 10
1833.977911541799
 20
4920.810805308291
 30
0.0
 11
1825.977911541799
 21
4920.810805308289
 31
0.0
  0
LINE
  5
3A08
330
39E6
100
AcDbEntity
  8
JISSEN
100
AcDbLine
 10
1831.977911541799
 20
4869.033564009511
 30
0.0
 11
1831.977911541799
 21
4861.810805308291
 31
0.0
  0
LINE
  5
3A09
330
39E6
100
AcDbEntity
  8
JISSEN
100
AcDbLine
 10
1830.540487988118
 20
4866.81080530829
 30
0.0
 11
1829.583417438488
 21
4866.81080530829
 31
0.0
  0
ELLIPSE
  5
3A0A
330
39E6
100
AcDbEntity
  8
JISSEN
100
AcDbEllipse
 10
1830.540487988118
 20
4874.810805308291
 30
0.0
 11
0.0
 21
8.0
 31
0.0
210
0.0
220
0.0
230
-1.0
 40
0.2597511416441165
 41
0.0
 42
6.283185307179586
  0
ELLIPSE
  5
3A0B
330
39E6
100
AcDbEntity
  8
JISSEN
100
AcDbEllipse
 10
1829.583417438488
 20
4874.810805308291
 30
0.0
 11
0.0
 21
8.0
 31
0.0
210
0.0
220
0.0
230
-1.0
 40
0.2597511416441165
 41
3.141592653589793
 42
6.283185307179586
  0
LINE
  5
3A0C
330
39E6
100
AcDbEntity
  8
JISSEN
100
AcDbLine
 10
1803.519929676649
 20
4941.81080530829
 30
0.0
 11
1831.977911541799
 21
4941.81080530829
 31
0.0
  0
LINE
  5
3A0D
330
39E6
100
AcDbEntity
  8
JISSEN
100
AcDbLine
 10
1803.519929676649
 20
4951.810805308291
 30
0.0
 11
1831.977911541799
 21
4951.810805308291
 31
0.0
  0
LINE
  5
3A0E
330
39E6
100
AcDbEntity
  8
JISSEN
100
AcDbLine
 10
1831.977911541799
 20
4959.81080530829
 30
0.0
 11
1801.911244875133
 21
4959.81080530829
 31
0.0
  0
LINE
  5
3A0F
330
39E6
100
AcDbEntity
  8
JISSEN
100
AcDbLine
 10
1801.911244875133
 20
4959.810805308291
 30
0.0
 11
1795.911244875133
 21
4960.810805308291
 31
0.0
  0
LINE
  5
3A10
330
39E6
100
AcDbEntity
  8
JISSEN
100
AcDbLine
 10
1831.977911541799
 20
4959.810805308291
 30
0.0
 11
1831.977911541799
 21
4951.810805308291
 31
0.0
  0
ENDBLK
  5
39E8
330
39E6
100
AcDbEntity
  8
0
100
AcDbBlockEnd
  0
BLOCK
  5
3AF4
330
3AF3
100
AcDbEntity
  8
0
100
AcDbBlockBegin
  2
2
 70
     0
 10
0.0
 20
0.0
 30
0.0
  3
2
  1

  0
ARC
  5
3C53
330
3AF3
100
AcDbEntity
  8
JISSEN
100
AcDbCircle
 10
2423.757791670323
 20
4395.821689690738
 30
0.0
 40
90.0
100
AcDbArc
 50
116.1038811373399
 51
169.759651678814
  0
ARC
  5
3C54
330
3AF3
100
AcDbEntity
  8
JISSEN
100
AcDbCircle
 10
2423.757791670323
 20
4395.821689690738
 30
0.0
 40
80.0
100
AcDbArc
 50
116.1038811373397
 51
170.9312784539672
  0
LINE
  5
3C55
330
3AF3
100
AcDbEntity
  8
JISSEN
100
AcDbLine
 10
2328.467197861816
 20
4421.539246565806
 30
0.0
 11
2339.773299834378
 21
4428.172966807077
 31
0.0
  0
LINE
  5
3C56
330
3AF3
100
AcDbEntity
  8
JISSEN
100
AcDbLine
 10
2334.287110107343
 20
4437.495268138668
 30
0.0
 11
2338.547618753198
 21
4435.5108120221
 31
0.0
  0
LINE
  5
3C57
330
3AF3
100
AcDbEntity
  8
JISSEN
100
AcDbLine
 10
2337.956030578704
 20
4444.604348429031
 30
0.0
 11
2351.869436122761
 21
4449.97022925246
 31
0.0
  0
LINE
  5
3C58
330
3AF3
100
AcDbEntity
  8
JISSEN
100
AcDbLine
 10
2334.287110107343
 20
4437.495268138667
 30
0.0
 11
2347.344992117224
 21
4443.37254735343
 31
0.0
  0
LINE
  5
3C59
330
3AF3
100
AcDbEntity
  8
JISSEN
100
AcDbLine
 10
2331.205985349048
 20
4430.112404857811
 30
0.0
 11
2343.424303564944
 21
4436.399154974107
 31
0.0
  0
LINE
  5
3C5A
330
3AF3
100
AcDbEntity
  8
JISSEN
100
AcDbLine
 10
2344.757791670323
 20
4408.431209903658
 30
0.0
 11
2335.191432368385
 21
4411.821689690738
 31
0.0
  0
LINE
  5
3C5B
330
3AF3
100
AcDbEntity
  8
JISSEN
100
AcDbLine
 10
2335.757791670323
 20
4402.821689690738
 30
0.0
 11
2344.757791670323
 21
4408.431209903658
 31
0.0
  0
LINE
  5
3C5C
330
3AF3
100
AcDbEntity
  8
JISSEN
100
AcDbLine
 10
2328.467197861816
 20
4421.539246565806
 30
0.0
 11
2333.004845186031
 21
4420.314601000326
 31
0.0
  0
LINE
  5
3C5D
330
3AF3
100
AcDbEntity
  8
JISSEN
100
AcDbLine
 10
2326.520730608394
 20
4412.752252470476
 30
0.0
 11
2336.962141022171
 21
4419.623265868884
 31
0.0
  0
ARC
  5
3C5E
330
3AF3
100
AcDbEntity
  8
JISSEN
100
AcDbCircle
 10
2423.757791670323
 20
4395.821689690738
 30
0.0
 40
98.69999999999999
100
AcDbArc
 50
159.6701846654357
 51
164.8965355630267
  0
LINE
  5
3C5F
330
3AF3
100
AcDbEntity
  8
JISSEN
100
AcDbLine
 10
2325.468982541308
 20
4404.821689690739
 30
0.0
 11
2335.191432368385
 21
4411.821689690738
 31
0.0
  0
LINE
  5
3C60
330
3AF3
100
AcDbEntity
  8
JISSEN
100
AcDbLine
 10
2335.757791670323
 20
4402.821689690738
 30
0.0
 11
2325.468982541308
 21
4404.821689690739
 31
0.0
  0
ARC
  5
3C61
330
3AF3
100
AcDbEntity
  8
JISSEN
100
AcDbCircle
 10
2423.757791670323
 20
4395.821689690738
 30
0.0
 40
98.69999999999997
100
AcDbArc
 50
170.1228864606175
 51
174.7681934615898
  0
LINE
  5
3C62
330
3AF3
100
AcDbEntity
  8
JISSEN
100
AcDbLine
 10
2333.004845186031
 20
4420.314601000326
 30
0.0
 11
2338.046393889523
 21
4423.272669463078
 31
0.0
  0
ARC
  5
3C63
330
3AF3
100
AcDbEntity
  8
JISSEN
100
AcDbCircle
 10
2423.757791670323
 20
4395.821689690738
 30
0.0
 40
98.69999999999997
100
AcDbArc
 50
150.3795706634909
 51
155.0248776644632
  0
LINE
  5
3C64
330
3AF3
100
AcDbEntity
  8
JISSEN
100
AcDbLine
 10
2384.757791670323
 20
4563.995774387895
 30
0.0
 11
2384.757791670323
 21
4494.821689690738
 31
0.0
  0
LINE
  5
3C65
330
3AF3
100
AcDbEntity
  8
JISSEN
100
AcDbLine
 10
2389.757791670322
 20
4546.821689690738
 30
0.0
 11
2389.757791670322
 21
4485.621466973313
 31
0.0
  0
LINE
  5
3C66
330
3AF3
100
AcDbEntity
  8
JISSEN
100
AcDbLine
 10
2399.757791670323
 20
4546.821689690738
 30
0.0
 11
2399.757791670323
 21
4485.621466973313
 31
0.0
  0
ARC
  5
3C67
330
3AF3
100
AcDbEntity
  8
JISSEN
100
AcDbCircle
 10
2379.757791670323
 20
4485.621466973313
 30
0.0
 40
10.0
100
AcDbArc
 50
296.1038811373402
 51
0.5735766722395787
  0
ARC
  5
3C68
330
3AF3
100
AcDbEntity
  8
JISSEN
100
AcDbCircle
 10
2371.757791670323
 20
4491.276862415945
 30
0.0
 40
10.0
100
AcDbArc
 50
298.5797070364611
 51
0.0
  0
LINE
  5
3C69
330
3AF3
100
AcDbEntity
  8
JISSEN
100
AcDbLine
 10
2366.568833941455
 20
4476.264918827101
 30
0.0
 11
2384.157791670325
 21
4476.641489245047
 31
0.0
  0
LINE
  5
3C6A
330
3AF3
100
AcDbEntity
  8
JISSEN
100
AcDbLine
 10
2369.292117642828
 20
4472.434288868227
 30
0.0
 11
2376.790950564114
 21
4472.594834972824
 31
0.0
  0
LINE
  5
3C6B
330
3AF3
100
AcDbEntity
  8
JISSEN
100
AcDbLine
 10
2356.96392211744
 20
4461.962289855483
 30
0.0
 11
2364.120911222744
 21
4463.226752486356
 31
0.0
  0
LINE
  5
3C6C
330
3AF3
100
AcDbEntity
  8
JISSEN
100
AcDbLine
 10
2346.613592914366
 20
4449.531768803523
 30
0.0
 11
2353.097395787968
 21
4451.563132565397
 31
0.0
  0
LINE
  5
3C6D
330
3AF3
100
AcDbEntity
  8
JISSEN
100
AcDbLine
 10
2338.547618753198
 20
4435.5108120221
 30
0.0
 11
2344.308191829322
 21
4438.103613548396
 31
0.0
  0
LINE
  5
3C6E
330
3AF3
100
AcDbEntity
  8
JISSEN
100
AcDbLine
 10
2342.75638297657
 20
4452.217272759162
 30
0.0
 11
2346.613592914367
 21
4449.531768803523
 31
0.0
  0
LINE
  5
3C6F
330
3AF3
100
AcDbEntity
  8
JISSEN
100
AcDbLine
 10
2353.624228639796
 20
4465.269319863718
 30
0.0
 11
2356.96392211744
 21
4461.962289855483
 31
0.0
  0
LINE
  5
3C70
330
3AF3
100
AcDbEntity
  8
JISSEN
100
AcDbLine
 10
2366.568833941455
 20
4476.264918827101
 30
0.0
 11
2369.292117642828
 21
4472.434288868228
 31
0.0
  0
LINE
  5
3C71
330
3AF3
100
AcDbEntity
  8
JISSEN
100
AcDbLine
 10
2359.478969695814
 20
4470.721109218323
 30
0.0
 11
2376.922446968268
 21
4472.675124790542
 31
0.0
  0
LINE
  5
3C72
330
3AF3
100
AcDbEntity
  8
JISSEN
100
AcDbLine
 10
2353.624228639796
 20
4465.269319863718
 30
0.0
 11
2370.282809450395
 21
4468.212478307651
 31
0.0
  0
LINE
  5
3C73
330
3AF3
100
AcDbEntity
  8
JISSEN
100
AcDbLine
 10
2348.230244191098
 20
4459.361280276239
 30
0.0
 11
2364.065690310556
 21
4463.17785522334
 31
0.0
  0
LINE
  5
3C74
330
3AF3
100
AcDbEntity
  8
JISSEN
100
AcDbLine
 10
2342.756382976569
 20
4452.217272759162
 30
0.0
 11
2357.636959053575
 21
4456.879330441655
 31
0.0
  0
ARC
  5
3C75
330
3AF3
100
AcDbEntity
  8
JISSEN
100
AcDbCircle
 10
2423.757791670321
 20
4395.821689690736
 30
0.0
 40
98.69999999999999
100
AcDbArc
 50
118.5797070364616
 51
125.409903968772
  0
ARC
  5
3C76
330
3AF3
100
AcDbEntity
  8
JISSEN
100
AcDbCircle
 10
2423.757791670322
 20
4395.821689690736
 30
0.0
 40
98.69999999999997
100
AcDbArc
 50
130.6362548663628
 51
135.281561867335
  0
ARC
  5
3C77
330
3AF3
100
AcDbEntity
  8
JISSEN
100
AcDbCircle
 10
2423.757791670323
 20
4395.821689690738
 30
0.0
 40
98.69999999999999
100
AcDbArc
 50
139.926868868309
 51
145.1532197659001
  0
LINE
  5
3C78
330
3AF3
100
AcDbEntity
  8
JISSEN
100
AcDbLine
 10
2381.757791670323
 20
4493.821689690739
 30
0.0
 11
2381.757791670323
 21
4491.276862415945
 31
0.0
  0
LINE
  5
3C79
330
3AF3
100
AcDbEntity
  8
JISSEN
100
AcDbLine
 10
2381.757791670323
 20
4493.821689690739
 30
0.0
 11
2384.757791670323
 21
4494.821689690738
 31
0.0
  0
ARC
  5
3C7A
330
3AF3
100
AcDbEntity
  8
JISSEN
100
AcDbCircle
 10
2379.757791670323
 20
4485.621466973313
 30
0.0
 40
20.0
100
AcDbArc
 50
296.1038811373402
 51
0.5735766722395787
  0
LINE
  5
3C7B
330
3AF3
100
AcDbEntity
  8
JISSEN
100
AcDbLine
 10
2382.757791670323
 20
4572.821689690739
 30
0.0
 11
2389.757791670322
 21
4546.821689690738
 31
0.0
  0
LINE
  5
3C7C
330
3AF3
100
AcDbEntity
  8
JISSEN
100
AcDbLine
 10
2382.757791670323
 20
4572.821689690739
 30
0.0
 11
2409.757791670325
 21
4576.821689690738
 31
0.0
  0
LINE
  5
3C7D
330
3AF3
100
AcDbEntity
  8
JISSEN
100
AcDbLine
 10
2382.757791670323
 20
4572.821689690739
 30
0.0
 11
2382.757791670323
 21
4564.821156708408
 31
0.0
  0
LINE
  5
3C7E
330
3AF3
100
AcDbEntity
  8
JISSEN
100
AcDbLine
 10
2382.757791670323
 20
4564.821156708408
 30
0.0
 11
2385.181024702546
 21
4563.821109856768
 31
0.0
  0
LINE
  5
3C7F
330
3AF3
100
AcDbEntity
  8
JISSEN
100
AcDbLine
 10
2409.757791670325
 20
4576.821689690738
 30
0.0
 11
2410.757791670323
 21
4551.821689690739
 31
0.0
  0
LINE
  5
3C80
330
3AF3
100
AcDbEntity
  8
JISSEN
100
AcDbLine
 10
2399.757791670323
 20
4546.821689690738
 30
0.0
 11
2409.757791670323
 21
4546.821689690737
 31
0.0
  0
LINE
  5
3C81
330
3AF3
100
AcDbEntity
  8
JISSEN
100
AcDbLine
 10
2409.757791670323
 20
4576.821689690738
 30
0.0
 11
2409.757791670323
 21
4546.821689690737
 31
0.0
  0
ENDBLK
  5
3AF5
330
3AF3
100
AcDbEntity
  8
0
100
AcDbBlockEnd
  0
BLOCK
  5
3B8C
330
3B8B
100
AcDbEntity
  8
0
100
AcDbBlockBegin
  2
3
 70
     0
 10
0.0
 20
0.0
 30
0.0
  3
3
  1

  0
ARC
  5
3B8E
330
3B8B
100
AcDbEntity
  8
JISSEN
100
AcDbCircle
 10
1601.697247020191
 20
2643.570196559486
 30
0.0
 40
49.0
100
AcDbArc
 50
288.5944375540528
 51
341.4055624459471
  0
ARC
  5
3B8F
330
3B8B
100
AcDbEntity
  8
JISSEN
100
AcDbCircle
 10
1601.697247020191
 20
2643.570196559486
 30
0.0
 40
49.0
100
AcDbArc
 50
13.7652983304348
 51
78.83355610853981
  0
ARC
  5
3B90
330
3B8B
100
AcDbEntity
  8
JISSEN
100
AcDbCircle
 10
1658.697247020191
 20
2586.570196559486
 30
0.0
 40
65.0
100
AcDbArc
 50
101.1071493158502
 51
145.6988472432083
  0
ARC
  5
3B91
330
3B8B
100
AcDbEntity
  8
JISSEN
100
AcDbCircle
 10
1658.697247020191
 20
2586.570196559486
 30
0.0
 40
49.0
100
AcDbArc
 50
108.5944375540528
 51
161.4055624459471
  0
ARC
  5
3B92
330
3B8B
100
AcDbEntity
  8
JISSEN
100
AcDbCircle
 10
1658.697247020191
 20
2586.570196559486
 30
0.0
 40
65.0
100
AcDbArc
 50
214.3011527567916
 51
258.8928506841497
  0
ARC
  5
3B93
330
3B8B
100
AcDbEntity
  8
JISSEN
100
AcDbCircle
 10
1658.697247020191
 20
2586.570196559486
 30
0.0
 40
49.0
100
AcDbArc
 50
198.5944375540528
 51
251.4055624459472
  0
ARC
  5
3B94
330
3B8B
100
AcDbEntity
  8
JISSEN
100
AcDbCircle
 10
1601.697247020191
 20
2529.570196559487
 30
0.0
 40
49.0
100
AcDbArc
 50
281.1664438914601
 51
346.2347016695652
  0
ARC
  5
3B95
330
3B8B
100
AcDbEntity
  8
JISSEN
100
AcDbCircle
 10
1601.697247020191
 20
2529.570196559487
 30
0.0
 40
49.0
100
AcDbArc
 50
18.59443755405279
 51
71.40556244594721
  0
CIRCLE
  5
3B96
330
3B8B
100
AcDbEntity
  8
JISSEN
100
AcDbCircle
 10
1601.697247020191
 20
2586.570196559486
 30
0.0
 40
110.4999999999999
  0
CIRCLE
  5
3B97
330
3B8B
100
AcDbEntity
  8
JISSEN
100
AcDbCircle
 10
1601.697247020191
 20
2586.570196559486
 30
0.0
 40
109.4999999999999
  0
CIRCLE
  5
3B98
330
3B8B
100
AcDbEntity
  8
JISSEN
100
AcDbCircle
 10
1601.697247020191
 20
2586.570196559486
 30
0.0
 40
106.4999999999999
  0
CIRCLE
  5
3B99
330
3B8B
100
AcDbEntity
  8
JISSEN
100
AcDbCircle
 10
1601.697247020191
 20
2586.570196559486
 30
0.0
 40
123.5
  0
CIRCLE
  5
3B9A
330
3B8B
100
AcDbEntity
  8
JISSEN
100
AcDbCircle
 10
1601.697247020191
 20
2586.570196559486
 30
0.0
 40
124.5
  0
CIRCLE
  5
3B9B
330
3B8B
100
AcDbEntity
  8
JISSEN
100
AcDbCircle
 10
1601.697247020191
 20
2586.570196559486
 30
0.0
 40
128.0
  0
ARC
  5
3B9C
330
3B8B
100
AcDbEntity
  8
JISSEN
100
AcDbCircle
 10
1524.58979087984
 20
2652.575425197556
 30
0.0
 40
4.0
100
AcDbArc
 50
139.4359400790256
 51
286.9425337515977
  0
ARC
  5
3B9D
330
3B8B
100
AcDbEntity
  8
JISSEN
100
AcDbCircle
 10
1544.697247020191
 20
2586.570196559486
 30
0.0
 40
49.0
100
AcDbArc
 50
103.7652983304344
 51
168.8335561085398
  0
ARC
  5
3B9E
330
3B8B
100
AcDbEntity
  8
JISSEN
100
AcDbCircle
 10
1524.58979087984
 20
2520.564967921417
 30
0.0
 40
4.0
100
AcDbArc
 50
73.05746624840228
 51
220.5640599209743
  0
ARC
  5
3B9F
330
3B8B
100
AcDbEntity
  8
JISSEN
100
AcDbCircle
 10
1544.697247020191
 20
2586.570196559486
 30
0.0
 40
49.0
100
AcDbArc
 50
191.166443891459
 51
256.2347016695655
  0
ARC
  5
3BA0
330
3B8B
100
AcDbEntity
  8
JISSEN
100
AcDbCircle
 10
1601.697247020191
 20
2586.570196559486
 30
0.0
 40
105.4999999999999
100
AcDbArc
 50
174.8394844549277
 51
185.1605155450722
  0
ARC
  5
3BA1
330
3B8B
100
AcDbEntity
  8
JISSEN
100
AcDbCircle
 10
1587.697247020191
 20
2579.570196559486
 30
0.0
 40
1.0
100
AcDbArc
 50
179.9999999999739
 51
270.000000000013
  0
ARC
  5
3BA2
330
3B8B
100
AcDbEntity
  8
JISSEN
100
AcDbCircle
 10
1601.697247020191
 20
2586.570196559486
 30
0.0
 40
14.0
100
AcDbArc
 50
214.8499045790464
 51
145.1500954209535
  0
CIRCLE
  5
3BA3
330
3B8B
100
AcDbEntity
  8
JISSEN
100
AcDbCircle
 10
1601.697247020191
 20
2586.570196559486
 30
0.0
 40
12.5
  0
ARC
  5
3BA4
330
3B8B
100
AcDbEntity
  8
JISSEN
100
AcDbCircle
 10
1601.697247020191
 20
2529.570196559487
 30
0.0
 40
65.0
100
AcDbArc
 50
124.3011527567916
 51
168.8928506841496
  0
ARC
  5
3BA5
330
3B8B
100
AcDbEntity
  8
JISSEN
100
AcDbCircle
 10
1601.697247020191
 20
2529.570196559487
 30
0.0
 40
49.0
100
AcDbArc
 50
108.5944375540528
 51
161.4055624459471
  0
ARC
  5
3BA6
330
3B8B
100
AcDbEntity
  8
JISSEN
100
AcDbCircle
 10
1544.697247020191
 20
2586.570196559486
 30
0.0
 40
65.0
100
AcDbArc
 50
281.1071493158502
 51
325.6988472432083
  0
ARC
  5
3BA7
330
3B8B
100
AcDbEntity
  8
JISSEN
100
AcDbCircle
 10
1544.697247020191
 20
2586.570196559486
 30
0.0
 40
49.0
100
AcDbArc
 50
288.5944375540528
 51
341.4055624459471
  0
ARC
  5
3BA8
330
3B8B
100
AcDbEntity
  8
JISSEN
100
AcDbCircle
 10
1601.697247020191
 20
2529.570196559487
 30
0.0
 40
49.0
100
AcDbArc
 50
193.7652983304348
 51
258.8335561085398
  0
ARC
  5
3BA9
330
3B8B
100
AcDbEntity
  8
JISSEN
100
AcDbCircle
 10
1533.989711299366
 20
2542.862660838661
 30
0.0
 40
4.0
100
AcDbArc
 50
256.2347016695663
 51
348.8928506841516
  0
ARC
  5
3BAA
330
3B8B
100
AcDbEntity
  8
JISSEN
100
AcDbCircle
 10
1533.596110672859
 20
2518.469060212154
 30
0.0
 40
4.0
100
AcDbArc
 50
9.258328533223849
 51
80.74167146677668
  0
ARC
  5
3BAB
330
3B8B
100
AcDbEntity
  8
JISSEN
100
AcDbCircle
 10
1535.692018382121
 20
2509.462740419136
 30
0.0
 40
4.0
100
AcDbArc
 50
229.4359400790231
 51
16.94253375159989
  0
ARC
  5
3BAC
330
3B8B
100
AcDbEntity
  8
JISSEN
100
AcDbCircle
 10
1557.989711299366
 20
2518.862660838661
 30
0.0
 40
4.0
100
AcDbArc
 50
101.1071493158509
 51
193.7652983304376
  0
ARC
  5
3BAD
330
3B8B
100
AcDbEntity
  8
JISSEN
100
AcDbCircle
 10
1601.697247020191
 20
2586.570196559486
 30
0.0
 40
105.4999999999999
100
AcDbArc
 50
220.5640599209758
 51
229.4359400790238
  0
ARC
  5
3BAE
330
3B8B
100
AcDbEntity
  8
JISSEN
100
AcDbCircle
 10
1559.046275322106
 20
2543.919224861401
 30
0.0
 40
4.0
100
AcDbArc
 50
161.405562445946
 51
288.5944375540538
  0
ARC
  5
3BAF
330
3B8B
100
AcDbEntity
  8
JISSEN
100
AcDbCircle
 10
1544.697247020191
 20
2586.570196559486
 30
0.0
 40
65.0
100
AcDbArc
 50
253.0574662484021
 51
260.7416714667769
  0
ARC
  5
3BB0
330
3B8B
100
AcDbEntity
  8
JISSEN
100
AcDbCircle
 10
1601.697247020191
 20
2529.570196559487
 30
0.0
 40
65.0
100
AcDbArc
 50
189.258328533223
 51
196.9425337515974
  0
ARC
  5
3BB1
330
3B8B
100
AcDbEntity
  8
JISSEN
100
AcDbCircle
 10
1601.697247020191
 20
2547.685752369039
 30
0.0
 40
4.0
100
AcDbArc
 50
34.30115275678971
 51
145.6988472432102
  0
ARC
  5
3BB2
330
3B8B
100
AcDbEntity
  8
JISSEN
100
AcDbCircle
 10
1601.697247020191
 20
2586.570196559486
 30
0.0
 40
105.4999999999999
100
AcDbArc
 50
264.8394844549278
 51
275.1605155450722
  0
ARC
  5
3BB3
330
3B8B
100
AcDbEntity
  8
JISSEN
100
AcDbCircle
 10
1587.348218718276
 20
2572.221168257572
 30
0.0
 40
4.0
100
AcDbArc
 50
341.4055624459461
 51
108.5944375540538
  0
ARC
  5
3BB4
330
3B8B
100
AcDbEntity
  8
JISSEN
100
AcDbCircle
 10
1616.046275322107
 20
2572.221168257572
 30
0.0
 40
4.0
100
AcDbArc
 50
71.40556244594612
 51
198.5944375540539
  0
ARC
  5
3BB5
330
3B8B
100
AcDbEntity
  8
JISSEN
100
AcDbCircle
 10
1544.697247020191
 20
2586.570196559486
 30
0.0
 40
49.0
100
AcDbArc
 50
18.59443755405279
 51
71.40556244594721
  0
ARC
  5
3BB6
330
3B8B
100
AcDbEntity
  8
JISSEN
100
AcDbCircle
 10
1544.697247020191
 20
2586.570196559486
 30
0.0
 40
65.0
100
AcDbArc
 50
34.30115275679161
 51
78.89285068414976
  0
ARC
  5
3BB7
330
3B8B
100
AcDbEntity
  8
JISSEN
100
AcDbCircle
 10
1601.697247020191
 20
2643.570196559486
 30
0.0
 40
49.0
100
AcDbArc
 50
198.5944375540528
 51
251.4055624459472
  0
ARC
  5
3BB8
330
3B8B
100
AcDbEntity
  8
JISSEN
100
AcDbCircle
 10
1601.697247020191
 20
2643.570196559486
 30
0.0
 40
49.0
100
AcDbArc
 50
101.1664438914601
 51
166.2347016695651
  0
ARC
  5
3BB9
330
3B8B
100
AcDbEntity
  8
JISSEN
100
AcDbCircle
 10
1533.989711299366
 20
2630.277732280312
 30
0.0
 40
4.0
100
AcDbArc
 50
11.10714931584835
 51
103.7652983304337
  0
ARC
  5
3BBA
330
3B8B
100
AcDbEntity
  8
JISSEN
100
AcDbCircle
 10
1562.812802829744
 20
2586.570196559486
 30
0.0
 40
4.0
100
AcDbArc
 50
304.3011527567896
 51
55.69884724321028
  0
ARC
  5
3BBB
330
3B8B
100
AcDbEntity
  8
JISSEN
100
AcDbCircle
 10
1533.596110672859
 20
2654.671332906819
 30
0.0
 40
4.0
100
AcDbArc
 50
279.2583285332233
 51
350.7416714667761
  0
ARC
  5
3BBC
330
3B8B
100
AcDbEntity
  8
JISSEN
100
AcDbCircle
 10
1535.692018382121
 20
2663.677652699837
 30
0.0
 40
4.0
100
AcDbArc
 50
343.0574662484001
 51
130.5640599209768
  0
ARC
  5
3BBD
330
3B8B
100
AcDbEntity
  8
JISSEN
100
AcDbCircle
 10
1557.989711299366
 20
2654.277732280312
 30
0.0
 40
4.0
100
AcDbArc
 50
166.2347016695623
 51
258.892850684149
  0
ARC
  5
3BBE
330
3B8B
100
AcDbEntity
  8
JISSEN
100
AcDbCircle
 10
1559.046275322106
 20
2629.221168257572
 30
0.0
 40
4.0
100
AcDbArc
 50
71.40556244594612
 51
198.5944375540539
  0
ARC
  5
3BBF
330
3B8B
100
AcDbEntity
  8
JISSEN
100
AcDbCircle
 10
1601.697247020191
 20
2643.570196559486
 30
0.0
 40
65.0
100
AcDbArc
 50
191.1071493158503
 51
235.6988472432083
  0
ARC
  5
3BC0
330
3B8B
100
AcDbEntity
  8
JISSEN
100
AcDbCircle
 10
1544.697247020191
 20
2586.570196559486
 30
0.0
 40
65.0
100
AcDbArc
 50
99.25832853322308
 51
106.9425337515978
  0
ARC
  5
3BC1
330
3B8B
100
AcDbEntity
  8
JISSEN
100
AcDbCircle
 10
1601.697247020191
 20
2643.570196559486
 30
0.0
 40
65.0
100
AcDbArc
 50
163.0574662484025
 51
170.7416714667769
  0
ARC
  5
3BC2
330
3B8B
100
AcDbEntity
  8
JISSEN
100
AcDbCircle
 10
1601.697247020191
 20
2586.570196559486
 30
0.0
 40
105.4999999999999
100
AcDbArc
 50
130.5640599209761
 51
139.435940079024
  0
ARC
  5
3BC3
330
3B8B
100
AcDbEntity
  8
JISSEN
100
AcDbCircle
 10
1601.697247020191
 20
2586.570196559486
 30
0.0
 40
105.4999999999999
100
AcDbArc
 50
84.83948445492773
 51
95.16051554507225
  0
ARC
  5
3BC4
330
3B8B
100
AcDbEntity
  8
JISSEN
100
AcDbCircle
 10
1601.697247020191
 20
2625.454640749933
 30
0.0
 40
4.0
100
AcDbArc
 50
214.3011527567897
 51
325.6988472432102
  0
ARC
  5
3BC5
330
3B8B
100
AcDbEntity
  8
JISSEN
100
AcDbCircle
 10
1616.046275322107
 20
2600.919224861401
 30
0.0
 40
4.0
100
AcDbArc
 50
161.405562445946
 51
288.5944375540538
  0
ARC
  5
3BC6
330
3B8B
100
AcDbEntity
  8
JISSEN
100
AcDbCircle
 10
1587.348218718276
 20
2600.919224861401
 30
0.0
 40
4.0
100
AcDbArc
 50
251.4055624459461
 51
18.59443755405389
  0
LINE
  5
3BC7
330
3B8B
100
AcDbEntity
  8
JISSEN
100
AcDbLine
 10
1590.208121727115
 20
2578.570196559486
 30
0.0
 11
1590.92445693678
 21
2579.570196559487
 31
0.0
  0
LINE
  5
3BC8
330
3B8B
100
AcDbEntity
  8
JISSEN
100
AcDbLine
 10
1590.208121727115
 20
2594.570196559486
 30
0.0
 11
1590.92445693678
 21
2593.570196559486
 31
0.0
  0
ARC
  5
3BC9
330
3B8B
100
AcDbEntity
  8
JISSEN
100
AcDbCircle
 10
1604.24557831933
 20
2586.570196559486
 30
0.0
 40
15.04833129913829
100
AcDbArc
 50
152.2789140882811
 51
207.7210859117187
  0
ARC
  5
3BCA
330
3B8B
100
AcDbEntity
  8
JISSEN
100
AcDbCircle
 10
1588.697247020191
 20
2580.570196559486
 30
0.0
 40
1.0
100
AcDbArc
 50
179.9999999999739
 51
270.000000000026
  0
LINE
  5
3BCB
330
3B8B
100
AcDbEntity
  8
JISSEN
100
AcDbLine
 10
1587.697247020192
 20
2578.570196559486
 30
0.0
 11
1590.208121727115
 21
2578.570196559486
 31
0.0
  0
LINE
  5
3BCC
330
3B8B
100
AcDbEntity
  8
JISSEN
100
AcDbLine
 10
1588.697247020191
 20
2579.570196559487
 30
0.0
 11
1590.92445693678
 21
2579.570196559487
 31
0.0
  0
ARC
  5
3BCD
330
3B8B
100
AcDbEntity
  8
JISSEN
100
AcDbCircle
 10
1587.697247020191
 20
2593.570196559487
 30
0.0
 40
1.0
100
AcDbArc
 50
89.99999999998697
 51
180.000000000026
  0
ARC
  5
3BCE
330
3B8B
100
AcDbEntity
  8
JISSEN
100
AcDbCircle
 10
1588.697247020191
 20
2592.570196559487
 30
0.0
 40
1.0
100
AcDbArc
 50
89.99999999997395
 51
180.000000000026
  0
LINE
  5
3BCF
330
3B8B
100
AcDbEntity
  8
JISSEN
100
AcDbLine
 10
1586.697247020191
 20
2579.570196559486
 30
0.0
 11
1586.697247020191
 21
2593.570196559486
 31
0.0
  0
LINE
  5
3BD0
330
3B8B
100
AcDbEntity
  8
JISSEN
100
AcDbLine
 10
1587.697247020191
 20
2580.570196559486
 30
0.0
 11
1587.697247020192
 21
2592.570196559487
 31
0.0
  0
LINE
  5
3BD1
330
3B8B
100
AcDbEntity
  8
JISSEN
100
AcDbLine
 10
1587.697247020192
 20
2594.570196559486
 30
0.0
 11
1590.208121727115
 21
2594.570196559486
 31
0.0
  0
LINE
  5
3BD2
330
3B8B
100
AcDbEntity
  8
JISSEN
100
AcDbLine
 10
1588.697247020191
 20
2593.570196559486
 30
0.0
 11
1590.92445693678
 21
2593.570196559486
 31
0.0
  0
CIRCLE
  5
3BD3
330
3B8B
100
AcDbEntity
  8
JISSEN
100
AcDbCircle
 10
1601.697247020191
 20
2586.570196559486
 30
0.0
 40
7.5
  0
ARC
  5
3BD4
330
3B8B
100
AcDbEntity
  8
JISSEN
100
AcDbCircle
 10
1601.697247020191
 20
2586.570196559486
 30
0.0
 40
105.4999999999999
100
AcDbArc
 50
354.8394844549278
 51
5.160515545072225
  0
ARC
  5
3BD5
330
3B8B
100
AcDbEntity
  8
JISSEN
100
AcDbCircle
 10
1601.697247020191
 20
2529.570196559487
 30
0.0
 40
65.0
100
AcDbArc
 50
11.10714931585039
 51
55.69884724320838
  0
ARC
  5
3BD6
330
3B8B
100
AcDbEntity
  8
JISSEN
100
AcDbCircle
 10
1667.702475658261
 20
2509.462740419136
 30
0.0
 40
4.0
100
AcDbArc
 50
163.0574662484001
 51
310.5640599209768
  0
ARC
  5
3BD7
330
3B8B
100
AcDbEntity
  8
JISSEN
100
AcDbCircle
 10
1669.798383367523
 20
2518.469060212154
 30
0.0
 40
4.0
100
AcDbArc
 50
99.25832853322333
 51
170.7416714667761
  0
ARC
  5
3BD8
330
3B8B
100
AcDbEntity
  8
JISSEN
100
AcDbCircle
 10
1669.404782741017
 20
2542.862660838661
 30
0.0
 40
4.0
100
AcDbArc
 50
191.1071493158483
 51
283.7652983304337
  0
ARC
  5
3BD9
330
3B8B
100
AcDbEntity
  8
JISSEN
100
AcDbCircle
 10
1645.404782741017
 20
2518.862660838661
 30
0.0
 40
4.0
100
AcDbArc
 50
346.2347016695623
 51
78.89285068414908
  0
ARC
  5
3BDA
330
3B8B
100
AcDbEntity
  8
JISSEN
100
AcDbCircle
 10
1644.348218718276
 20
2543.919224861401
 30
0.0
 40
4.0
100
AcDbArc
 50
251.4055624459461
 51
18.59443755405389
  0
ARC
  5
3BDB
330
3B8B
100
AcDbEntity
  8
JISSEN
100
AcDbCircle
 10
1601.697247020191
 20
2529.570196559487
 30
0.0
 40
65.0
100
AcDbArc
 50
343.0574662484025
 51
350.7416714667769
  0
ARC
  5
3BDC
330
3B8B
100
AcDbEntity
  8
JISSEN
100
AcDbCircle
 10
1678.804703160542
 20
2520.564967921417
 30
0.0
 40
4.0
100
AcDbArc
 50
319.4359400790256
 51
106.9425337515977
  0
ARC
  5
3BDD
330
3B8B
100
AcDbEntity
  8
JISSEN
100
AcDbCircle
 10
1601.697247020191
 20
2586.570196559486
 30
0.0
 40
105.4999999999999
100
AcDbArc
 50
310.5640599209761
 51
319.435940079024
  0
ARC
  5
3BDE
330
3B8B
100
AcDbEntity
  8
JISSEN
100
AcDbCircle
 10
1658.697247020191
 20
2586.570196559486
 30
0.0
 40
65.0
100
AcDbArc
 50
279.2583285332231
 51
286.9425337515978
  0
ARC
  5
3BDF
330
3B8B
100
AcDbEntity
  8
JISSEN
100
AcDbCircle
 10
1658.697247020191
 20
2586.570196559486
 30
0.0
 40
49.0
100
AcDbArc
 50
283.7652983304344
 51
348.8335561085398
  0
ARC
  5
3BE0
330
3B8B
100
AcDbEntity
  8
JISSEN
100
AcDbCircle
 10
1669.404782741017
 20
2630.277732280312
 30
0.0
 40
4.0
100
AcDbArc
 50
76.23470166956628
 51
168.8928506841516
  0
ARC
  5
3BE1
330
3B8B
100
AcDbEntity
  8
JISSEN
100
AcDbCircle
 10
1669.798383367523
 20
2654.671332906819
 30
0.0
 40
4.0
100
AcDbArc
 50
189.2583285332238
 51
260.7416714667766
  0
ARC
  5
3BE2
330
3B8B
100
AcDbEntity
  8
JISSEN
100
AcDbCircle
 10
1667.702475658261
 20
2663.677652699837
 30
0.0
 40
4.0
100
AcDbArc
 50
49.43594007902316
 51
196.9425337515998
  0
ARC
  5
3BE3
330
3B8B
100
AcDbEntity
  8
JISSEN
100
AcDbCircle
 10
1601.697247020191
 20
2643.570196559486
 30
0.0
 40
65.0
100
AcDbArc
 50
304.3011527567914
 51
348.8928506841496
  0
ARC
  5
3BE4
330
3B8B
100
AcDbEntity
  8
JISSEN
100
AcDbCircle
 10
1645.404782741017
 20
2654.277732280312
 30
0.0
 40
4.0
100
AcDbArc
 50
281.1071493158509
 51
13.76529833043766
  0
ARC
  5
3BE5
330
3B8B
100
AcDbEntity
  8
JISSEN
100
AcDbCircle
 10
1644.348218718276
 20
2629.221168257572
 30
0.0
 40
4.0
100
AcDbArc
 50
341.4055624459461
 51
108.5944375540538
  0
ARC
  5
3BE6
330
3B8B
100
AcDbEntity
  8
JISSEN
100
AcDbCircle
 10
1601.697247020191
 20
2643.570196559486
 30
0.0
 40
65.0
100
AcDbArc
 50
9.25832853322306
 51
16.94253375159747
  0
ARC
  5
3BE7
330
3B8B
100
AcDbEntity
  8
JISSEN
100
AcDbCircle
 10
1640.581691210639
 20
2586.570196559486
 30
0.0
 40
4.0
100
AcDbArc
 50
124.3011527567924
 51
235.6988472432103
  0
CIRCLE
  5
3BE8
330
3B8B
100
AcDbEntity
  8
JISSEN
100
AcDbCircle
 10
1684.428740419018
 20
2669.301689958313
 30
0.0
 40
4.0
  0
ARC
  5
3BE9
330
3B8B
100
AcDbEntity
  8
JISSEN
100
AcDbCircle
 10
1678.804703160542
 20
2652.575425197556
 30
0.0
 40
4.0
100
AcDbArc
 50
253.0574662484022
 51
40.56405992097437
  0
ARC
  5
3BEA
330
3B8B
100
AcDbEntity
  8
JISSEN
100
AcDbCircle
 10
1601.697247020191
 20
2586.570196559486
 30
0.0
 40
105.4999999999999
100
AcDbArc
 50
40.56405992097592
 51
49.43594007902382
  0
ARC
  5
3BEB
330
3B8B
100
AcDbEntity
  8
JISSEN
100
AcDbCircle
 10
1658.697247020191
 20
2586.570196559486
 30
0.0
 40
65.0
100
AcDbArc
 50
73.05746624840214
 51
80.74167146677693
  0
ARC
  5
3BEC
330
3B8B
100
AcDbEntity
  8
JISSEN
100
AcDbCircle
 10
1658.697247020191
 20
2586.570196559486
 30
0.0
 40
49.0
100
AcDbArc
 50
11.16644389146013
 51
76.23470166956552
  0
ENDBLK
  5
3B8D
330
3B8B
100
AcDbEntity
  8
0
100
AcDbBlockEnd
  0
BLOCK
  5
3D2C
330
3D20
100
AcDbEntity
  8
0
100
AcDbBlockBegin
  2
ZNUT060000S
 70
     0
 10
0.0
 20
0.0
 30
0.0
  3
ZNUT060000S
  1

  0
LINE
  5
3D21
330
3D20
100
AcDbEntity
  8
0
  6
BYBLOCK
 62
     0
100
AcDbLine
 10
-1.6
 20
6.25
 30
0.0
 11
0.0
 21
6.25
 31
0.0
  0
LINE
  5
3D22
330
3D20
100
AcDbEntity
  8
0
  6
BYBLOCK
 62
     0
100
AcDbLine
 10
0.0
 20
6.25
 30
0.0
 11
0.0
 21
-6.25
 31
0.0
  0
LINE
  5
3D23
330
3D20
100
AcDbEntity
  8
0
  6
BYBLOCK
 62
     0
100
AcDbLine
 10
0.0
 20
-6.25
 30
0.0
 11
-1.6
 21
-6.25
 31
0.0
  0
LINE
  5
3D24
330
3D20
100
AcDbEntity
  8
0
  6
BYBLOCK
 62
     0
100
AcDbLine
 10
-3.1
 20
5.0
 30
0.0
 11
-3.1
 21
-5.0
 31
0.0
  0
LINE
  5
3D25
330
3D20
100
AcDbEntity
  8
0
  6
BYBLOCK
 62
     0
100
AcDbLine
 10
-8.099999999999999
 20
2.5
 30
0.0
 11
-8.099999999999999
 21
-2.5
 31
0.0
  0
LINE
  5
3D26
330
3D20
100
AcDbEntity
  8
0
  6
BYBLOCK
 62
     0
100
AcDbLine
 10
-7.619999999999999
 20
0.0
 30
0.0
 11
-3.1
 21
0.0
 31
0.0
  0
LINE
  5
3D27
330
3D20
100
AcDbEntity
  8
0
  6
BYBLOCK
 62
     0
100
AcDbLine
 10
-7.619999999999999
 20
5.0
 30
0.0
 11
-1.6
 21
5.0
 31
0.0
  0
LINE
  5
3D28
330
3D20
100
AcDbEntity
  8
0
  6
BYBLOCK
 62
     0
100
AcDbLine
 10
-1.6
 20
6.25
 30
0.0
 11
-1.6
 21
-6.25
 31
0.0
  0
LINE
  5
3D29
330
3D20
100
AcDbEntity
  8
0
  6
BYBLOCK
 62
     0
100
AcDbLine
 10
-1.6
 20
-5.0
 30
0.0
 11
-7.619999999999999
 21
-5.0
 31
0.0
  0
ARC
  5
3D2A
330
3D20
100
AcDbEntity
  8
0
  6
BYBLOCK
 62
     0
100
AcDbCircle
 10
-1.349583333333346
 20
2.5
 30
0.0
 40
6.750416666666652
100
AcDbArc
 50
158.2629493196625
 51
201.7370506803374
  0
ARC
  5
3D2B
330
3D20
100
AcDbEntity
  8
0
  6
BYBLOCK
 62
     0
100
AcDbCircle
 10
-1.349583333333346
 20
-2.5
 30
0.0
 40
6.750416666666652
100
AcDbArc
 50
158.2629493196625
 51
201.7370506803374
  0
ENDBLK
  5
3D2D
330
3D20
100
AcDbEntity
  8
0
100
AcDbBlockEnd
  0
BLOCK
  5
3D38
330
3D30
100
AcDbEntity
  8
0
100
AcDbBlockBegin
  2
NUT060000S
 70
     0
 10
0.0
 20
0.0
 30
0.0
  3
NUT060000S
  1

  0
LINE
  5
3D31
330
3D30
100
AcDbEntity
  8
0
  6
BYBLOCK
 62
     0
100
AcDbLine
 10
-5.0
 20
2.5
 30
0.0
 11
-5.0
 21
-2.5
 31
0.0
  0
LINE
  5
3D32
330
3D30
100
AcDbEntity
  8
0
  6
BYBLOCK
 62
     0
100
AcDbLine
 10
-4.519999999999999
 20
0.0
 30
0.0
 11
0.0
 21
0.0
 31
0.0
  0
LINE
  5
3D33
330
3D30
100
AcDbEntity
  8
0
  6
BYBLOCK
 62
     0
100
AcDbLine
 10
-4.519999999999999
 20
5.0
 30
0.0
 11
0.0
 21
5.0
 31
0.0
  0
LINE
  5
3D34
330
3D30
100
AcDbEntity
  8
0
  6
BYBLOCK
 62
     0
100
AcDbLine
 10
0.0
 20
5.0
 30
0.0
 11
0.0
 21
-5.0
 31
0.0
  0
LINE
  5
3D35
330
3D30
100
AcDbEntity
  8
0
  6
BYBLOCK
 62
     0
100
AcDbLine
 10
0.0
 20
-5.0
 30
0.0
 11
-4.519999999999999
 21
-5.0
 31
0.0
  0
ARC
  5
3D36
330
3D30
100
AcDbEntity
  8
0
  6
BYBLOCK
 62
     0
100
AcDbCircle
 10
1.750416666666652
 20
2.5
 30
0.0
 40
6.750416666666652
100
AcDbArc
 50
158.2629493196625
 51
201.7370506803374
  0
ARC
  5
3D37
330
3D30
100
AcDbEntity
  8
0
  6
BYBLOCK
 62
     0
100
AcDbCircle
 10
1.750416666666652
 20
-2.5
 30
0.0
 40
6.750416666666652
100
AcDbArc
 50
158.2629493196625
 51
201.7370506803374
  0
ENDBLK
  5
3D39
330
3D30
100
AcDbEntity
  8
0
100
AcDbBlockEnd
  0
BLOCK
  5
3E17
330
3E0D
100
AcDbEntity
  8
0
100
AcDbBlockBegin
  2
NUT060000F
 70
     0
 10
0.0
 20
0.0
 30
0.0
  3
NUT060000F
  1

  0
LINE
  5
3E0E
330
3E0D
100
AcDbEntity
  8
0
  6
BYBLOCK
 62
     0
100
AcDbLine
 10
0.0
 20
2.886751345948128
 30
0.0
 11
-4.519999999999999
 21
2.886751345948128
 31
0.0
  0
LINE
  5
3E0F
330
3E0D
100
AcDbEntity
  8
0
  6
BYBLOCK
 62
     0
100
AcDbLine
 10
-5.0
 20
4.330127018922192
 30
0.0
 11
-5.0
 21
-4.330127018922192
 31
0.0
  0
LINE
  5
3E10
330
3E0D
100
AcDbEntity
  8
0
  6
BYBLOCK
 62
     0
100
AcDbLine
 10
0.0
 20
-2.886751345948128
 30
0.0
 11
-4.519999999999999
 21
-2.886751345948128
 31
0.0
  0
LINE
  5
3E11
330
3E0D
100
AcDbEntity
  8
0
  6
BYBLOCK
 62
     0
100
AcDbLine
 10
-4.519999999999999
 20
5.773502691896257
 30
0.0
 11
0.0
 21
5.773502691896257
 31
0.0
  0
LINE
  5
3E12
330
3E0D
100
AcDbEntity
  8
0
  6
BYBLOCK
 62
     0
100
AcDbLine
 10
0.0
 20
5.773502691896257
 30
0.0
 11
0.0
 21
-5.773502691896257
 31
0.0
  0
LINE
  5
3E13
330
3E0D
100
AcDbEntity
  8
0
  6
BYBLOCK
 62
     0
100
AcDbLine
 10
0.0
 20
-5.773502691896257
 30
0.0
 11
-4.519999999999999
 21
-5.773502691896257
 31
0.0
  0
ARC
  5
3E14
330
3E0D
100
AcDbEntity
  8
0
  6
BYBLOCK
 62
     0
100
AcDbCircle
 10
-2.589861111111116
 20
4.330127018922192
 30
0.0
 40
2.410138888888883
100
AcDbArc
 50
143.21052093018
 51
216.7894790698199
  0
ARC
  5
3E15
330
3E0D
100
AcDbEntity
  8
0
  6
BYBLOCK
 62
     0
100
AcDbCircle
 10
3.920555555555514
 20
0.0
 30
0.0
 40
8.920555555555514
100
AcDbArc
 50
161.1188176703866
 51
198.8811823296133
  0
ARC
  5
3E16
330
3E0D
100
AcDbEntity
  8
0
  6
BYBLOCK
 62
     0
100
AcDbCircle
 10
-2.589861111111109
 20
-4.330127018922192
 30
0.0
 40
2.41013888888889
100
AcDbArc
 50
143.2105209301801
 51
216.7894790698198
  0
ENDBLK
  5
3E18
330
3E0D
100
AcDbEntity
  8
0
100
AcDbBlockEnd
  0
BLOCK
  5
3E24
330
3E1A
100
AcDbEntity
  8
0
100
AcDbBlockBegin
  2
NUT060T
 70
     0
 10
0.0
 20
0.0
 30
0.0
  3
NUT060T
  1

  0
CIRCLE
  5
3E1B
330
3E1A
100
AcDbEntity
  8
0
  6
BYBLOCK
 62
     0
100
AcDbCircle
 10
0.0
 20
0.0
 30
0.0
 40
5.0
  0
LINE
  5
3E1C
330
3E1A
100
AcDbEntity
  8
0
  6
BYBLOCK
 62
     0
100
AcDbLine
 10
5.0
 20
2.886751345948128
 30
0.0
 11
0.0
 21
5.773502691896257
 31
0.0
  0
LINE
  5
3E1D
330
3E1A
100
AcDbEntity
  8
0
  6
BYBLOCK
 62
     0
100
AcDbLine
 10
0.0
 20
5.773502691896257
 30
0.0
 11
-5.0
 21
2.886751345948128
 31
0.0
  0
LINE
  5
3E1E
330
3E1A
100
AcDbEntity
  8
0
  6
BYBLOCK
 62
     0
100
AcDbLine
 10
-5.0
 20
2.886751345948128
 30
0.0
 11
-5.0
 21
-2.886751345948128
 31
0.0
  0
LINE
  5
3E1F
330
3E1A
100
AcDbEntity
  8
0
  6
BYBLOCK
 62
     0
100
AcDbLine
 10
-5.0
 20
-2.886751345948128
 30
0.0
 11
0.0
 21
-5.773502691896257
 31
0.0
  0
LINE
  5
3E20
330
3E1A
100
AcDbEntity
  8
0
  6
BYBLOCK
 62
     0
100
AcDbLine
 10
0.0
 20
-5.773502691896257
 30
0.0
 11
5.0
 21
-2.886751345948128
 31
0.0
  0
LINE
  5
3E21
330
3E1A
100
AcDbEntity
  8
0
  6
BYBLOCK
 62
     0
100
AcDbLine
 10
5.0
 20
-2.886751345948128
 30
0.0
 11
5.0
 21
2.886751345948128
 31
0.0
  0
CIRCLE
  5
3E22
330
3E1A
100
AcDbEntity
  8
0
  6
BYBLOCK
 62
     0
100
AcDbCircle
 10
0.0
 20
0.0
 30
0.0
 40
3.0
  0
CIRCLE
  5
3E23
330
3E1A
100
AcDbEntity
  8
0
  6
BYBLOCK
 62
     0
100
AcDbCircle
 10
0.0
 20
0.0
 30
0.0
 40
2.399999999999999
  0
ENDBLK
  5
3E25
330
3E1A
100
AcDbEntity
  8
0
100
AcDbBlockEnd
  0
BLOCK
  5
3E94
330
3E89
100
AcDbEntity
  8
0
100
AcDbBlockBegin
  2
LNUT060000S
 70
     0
 10
0.0
 20
0.0
 30
0.0
  3
LNUT060000S
  1

  0
LINE
  5
3E8A
330
3E89
100
AcDbEntity
  8
0
  6
BYBLOCK
 62
     0
100
AcDbLine
 10
-1.6
 20
5.75
 30
0.0
 11
0.0
 21
5.75
 31
0.0
  0
LINE
  5
3E8B
330
3E89
100
AcDbEntity
  8
0
  6
BYBLOCK
 62
     0
100
AcDbLine
 10
0.0
 20
5.75
 30
0.0
 11
0.0
 21
-5.75
 31
0.0
  0
LINE
  5
3E8C
330
3E89
100
AcDbEntity
  8
0
  6
BYBLOCK
 62
     0
100
AcDbLine
 10
0.0
 20
-5.75
 30
0.0
 11
-1.6
 21
-5.75
 31
0.0
  0
LINE
  5
3E8D
330
3E89
100
AcDbEntity
  8
0
  6
BYBLOCK
 62
     0
100
AcDbLine
 10
-6.599999999999999
 20
2.5
 30
0.0
 11
-6.599999999999999
 21
-2.5
 31
0.0
  0
LINE
  5
3E8E
330
3E89
100
AcDbEntity
  8
0
  6
BYBLOCK
 62
     0
100
AcDbLine
 10
-6.119999999999999
 20
0.0
 30
0.0
 11
-1.6
 21
0.0
 31
0.0
  0
LINE
  5
3E8F
330
3E89
100
AcDbEntity
  8
0
  6
BYBLOCK
 62
     0
100
AcDbLine
 10
-6.119999999999999
 20
5.0
 30
0.0
 11
-1.6
 21
5.0
 31
0.0
  0
LINE
  5
3E90
330
3E89
100
AcDbEntity
  8
0
  6
BYBLOCK
 62
     0
100
AcDbLine
 10
-1.6
 20
5.75
 30
0.0
 11
-1.6
 21
-5.75
 31
0.0
  0
LINE
  5
3E91
330
3E89
100
AcDbEntity
  8
0
  6
BYBLOCK
 62
     0
100
AcDbLine
 10
-1.6
 20
-5.0
 30
0.0
 11
-6.119999999999999
 21
-5.0
 31
0.0
  0
ARC
  5
3E92
330
3E89
100
AcDbEntity
  8
0
  6
BYBLOCK
 62
     0
100
AcDbCircle
 10
0.1504166666666533
 20
2.5
 30
0.0
 40
6.750416666666652
100
AcDbArc
 50
158.2629493196625
 51
201.7370506803374
  0
ARC
  5
3E93
330
3E89
100
AcDbEntity
  8
0
  6
BYBLOCK
 62
     0
100
AcDbCircle
 10
0.1504166666666533
 20
-2.5
 30
0.0
 40
6.750416666666652
100
AcDbArc
 50
158.2629493196625
 51
201.7370506803374
  0
ENDBLK
  5
3E95
330
3E89
100
AcDbEntity
  8
0
100
AcDbBlockEnd
  0
BLOCK
  5
506F
330
506A
100
AcDbEntity
  8
0
100
AcDbBlockBegin
  2
ZPAN050T
 70
     0
 10
0.0
 20
0.0
 30
0.0
  3
ZPAN050T
  1

  0
CIRCLE
  5
506B
330
506A
100
AcDbEntity
  8
0
  6
BYBLOCK
 62
     0
100
AcDbCircle
 10
0.0
 20
0.0
 30
0.0
 40
5.0
  0
CIRCLE
  5
506C
330
506A
100
AcDbEntity
  8
0
  6
BYBLOCK
 62
     0
100
AcDbCircle
 10
0.0
 20
0.0
 30
0.0
 40
4.5
  0
LINE
  5
506D
330
506A
100
AcDbEntity
  8
0
  6
BYBLOCK
 62
     0
100
AcDbLine
 10
1.767766952966368
 20
1.767766952966368
 30
0.0
 11
-1.767766952966368
 21
-1.767766952966368
 31
0.0
  0
LINE
  5
506E
330
506A
100
AcDbEntity
  8
0
  6
BYBLOCK
 62
     0
100
AcDbLine
 10
-1.767766952966368
 20
1.767766952966368
 30
0.0
 11
1.767766952966368
 21
-1.767766952966368
 31
0.0
  0
ENDBLK
  5
5070
330
506A
100
AcDbEntity
  8
0
100
AcDbBlockEnd
  0
BLOCK
  5
5137
330
512E
100
AcDbEntity
  8
0
100
AcDbBlockBegin
  2
PAN050000
 70
     0
 10
0.0
 20
0.0
 30
0.0
  3
PAN050000
  1

  0
LINE
  5
512F
330
512E
100
AcDbEntity
  8
0
  6
BYBLOCK
 62
     0
100
AcDbLine
 10
-1.53223304703363
 20
1.767766952966368
 30
0.0
 11
-3.299999999999999
 21
0.0
 31
0.0
  0
LINE
  5
5130
330
512E
100
AcDbEntity
  8
0
  6
BYBLOCK
 62
     0
100
AcDbLine
 10
-1.53223304703363
 20
-1.767766952966368
 30
0.0
 11
-3.299999999999999
 21
0.0
 31
0.0
  0
ARC
  5
5131
330
512E
100
AcDbEntity
  8
0
  6
BYBLOCK
 62
     0
100
AcDbCircle
 10
-1.28749217771909
 20
2.9
 30
0.0
 40
1.6
100
AcDbArc
 50
90.0
 51
163.8086483613832
  0
ARC
  5
5132
330
512E
100
AcDbEntity
  8
0
  6
BYBLOCK
 62
     0
100
AcDbCircle
 10
8.699999999999999
 20
0.0
 30
0.0
 40
12.0
100
AcDbArc
 50
163.8086483613832
 51
196.1913516386166
  0
ARC
  5
5133
330
512E
100
AcDbEntity
  8
0
  6
BYBLOCK
 62
     0
100
AcDbCircle
 10
-1.28749217771909
 20
-2.9
 30
0.0
 40
1.6
100
AcDbArc
 50
196.1913516386166
 51
270.0
  0
LINE
  5
5134
330
512E
100
AcDbEntity
  8
0
  6
BYBLOCK
 62
     0
100
AcDbLine
 10
-1.28749217771909
 20
4.5
 30
0.0
 11
0.0
 21
4.5
 31
0.0
  0
LINE
  5
5135
330
512E
100
AcDbEntity
  8
0
  6
BYBLOCK
 62
     0
100
AcDbLine
 10
0.0
 20
4.5
 30
0.0
 11
0.0
 21
-4.5
 31
0.0
  0
LINE
  5
5136
330
512E
100
AcDbEntity
  8
0
  6
BYBLOCK
 62
     0
100
AcDbLine
 10
0.0
 20
-4.5
 30
0.0
 11
-1.28749217771909
 21
-4.5
 31
0.0
  0
ENDBLK
  5
5138
330
512E
100
AcDbEntity
  8
0
100
AcDbBlockEnd
  0
BLOCK
  5
566A
330
5660
100
AcDbEntity
  8
0
100
AcDbBlockBegin
  2
*D28
 70
     1
 10
0.0
 20
0.0
 30
0.0
  3
*D28
  1

  0
LINE
  5
574E
330
5660
100
AcDbEntity
  8
SUNPOU
 62
     0
100
AcDbLine
 10
318.5236901554399
 20
1053.744980801844
 30
0.0
 11
318.5236901554399
 21
1128.605807489122
 31
0.0
  0
LINE
  5
574F
330
5660
100
AcDbEntity
  8
SUNPOU
 62
     0
100
AcDbLine
 10
533.5236901554399
 20
1053.744980801844
 30
0.0
 11
533.5236901554399
 21
1128.605807489122
 31
0.0
  0
LINE
  5
5750
330
5660
100
AcDbEntity
  8
SUNPOU
 62
     0
100
AcDbLine
 10
331.0236901554399
 20
1123.605807489122
 30
0.0
 11
521.0236901554399
 21
1123.605807489122
 31
0.0
  0
INSERT
  5
5751
330
5660
100
AcDbEntity
  8
SUNPOU
 62
     0
100
AcDbBlockReference
  2
ARROW
 10
318.5236901554399
 20
1123.605807489122
 30
0.0
 41
12.5
 42
12.5
 43
12.5
 50
180.0
  0
INSERT
  5
5752
330
5660
100
AcDbEntity
  8
SUNPOU
 62
     0
100
AcDbBlockReference
  2
ARROW
 10
533.5236901554399
 20
1123.605807489122
 30
0.0
 41
12.5
 42
12.5
 43
12.5
  0
MTEXT
  5
5753
330
5660
100
AcDbEntity
  8
SUNPOU
 62
     0
100
AcDbMText
 10
426.0236901554399
 20
1136.105807489122
 30
0.0
 40
15.0
 41
0.0
 71
     5
 72
     1
  1
\A1;215
1001
ACAD
1000
MTEXTBEGIN
1070
    73
1070
     1
1070
    44
1040
1.0
1070
    74
1070
     0
1000
MTEXTEND
  0
POINT
  5
5754
330
5660
100
AcDbEntity
  8
DEFPOINTS
 62
     0
100
AcDbPoint
 10
318.5236901554399
 20
1048.744980801844
 30
0.0
  0
POINT
  5
5755
330
5660
100
AcDbEntity
  8
DEFPOINTS
 62
     0
100
AcDbPoint
 10
533.5236901554399
 20
1048.744980801844
 30
0.0
  0
POINT
  5
5756
330
5660
100
AcDbEntity
  8
DEFPOINTS
 62
     0
100
AcDbPoint
 10
533.5236901554399
 20
1123.605807489122
 30
0.0
  0
ENDBLK
  5
566B
330
5660
100
AcDbEntity
  8
0
100
AcDbBlockEnd
  0
BLOCK
  5
5677
330
566D
100
AcDbEntity
  8
0
100
AcDbBlockBegin
  2
*D29
 70
     1
 10
0.0
 20
0.0
 30
0.0
  3
*D29
  1

  0
LINE
  5
5745
330
566D
100
AcDbEntity
  8
SUNPOU
 62
     0
100
AcDbLine
 10
341.5236901554399
 20
817.7449808018455
 30
0.0
 11
270.7486132292614
 21
817.7449808018455
 31
0.0
  0
LINE
  5
5746
330
566D
100
AcDbEntity
  8
SUNPOU
 62
     0
100
AcDbLine
 10
341.5236901554408
 20
1027.744980801845
 30
0.0
 11
270.7486132292615
 21
1027.744980801845
 31
0.0
  0
LINE
  5
5747
330
566D
100
AcDbEntity
  8
SUNPOU
 62
     0
100
AcDbLine
 10
275.7486132292614
 20
830.2449808018455
 30
0.0
 11
275.7486132292615
 21
1015.244980801845
 31
0.0
  0
INSERT
  5
5748
330
566D
100
AcDbEntity
  8
SUNPOU
 62
     0
100
AcDbBlockReference
  2
ARROW
 10
275.7486132292614
 20
817.7449808018455
 30
0.0
 41
12.5
 42
12.5
 43
12.5
 50
270.0
  0
INSERT
  5
5749
330
566D
100
AcDbEntity
  8
SUNPOU
 62
     0
100
AcDbBlockReference
  2
ARROW
 10
275.7486132292615
 20
1027.744980801845
 30
0.0
 41
12.5
 42
12.5
 43
12.5
 50
90.0
  0
MTEXT
  5
574A
330
566D
100
AcDbEntity
  8
SUNPOU
 62
     0
100
AcDbMText
 10
263.2486132292613
 20
922.7449808018455
 30
0.0
 40
15.0
 41
0.0
 71
     5
 72
     1
  1
\A1;210
 11
0.0000000000000001
 21
1.0
 31
0.0
1001
ACAD
1000
MTEXTBEGIN
1070
    73
1070
     1
1070
    44
1040
1.0
1070
    74
1070
     0
1000
MTEXTEND
  0
POINT
  5
574B
330
566D
100
AcDbEntity
  8
DEFPOINTS
 62
     0
100
AcDbPoint
 10
346.5236901554399
 20
817.7449808018455
 30
0.0
  0
POINT
  5
574C
330
566D
100
AcDbEntity
  8
DEFPOINTS
 62
     0
100
AcDbPoint
 10
346.5236901554408
 20
1027.744980801845
 30
0.0
  0
POINT
  5
574D
330
566D
100
AcDbEntity
  8
DEFPOINTS
 62
     0
100
AcDbPoint
 10
275.7486132292615
 20
1027.744980801845
 30
0.0
  0
ENDBLK
  5
5678
330
566D
100
AcDbEntity
  8
0
100
AcDbBlockEnd
  0
BLOCK
  5
5684
330
567A
100
AcDbEntity
  8
0
100
AcDbBlockBegin
  2
*D30
 70
     1
 10
0.0
 20
0.0
 30
0.0
  3
*D30
  1

  0
LINE
  5
5757
330
567A
100
AcDbEntity
  8
SUNPOU
 62
     0
100
AcDbLine
 10
317.5236901554408
 20
792.7449808018455
 30
0.0
 11
236.1070937818366
 21
792.7449808018455
 31
0.0
  0
LINE
  5
5758
330
567A
100
AcDbEntity
  8
SUNPOU
 62
     0
100
AcDbLine
 10
317.5236901554399
 20
1052.744980801844
 30
0.0
 11
236.1070937818367
 21
1052.744980801844
 31
0.0
  0
LINE
  5
5759
330
567A
100
AcDbEntity
  8
SUNPOU
 62
     0
100
AcDbLine
 10
241.1070937818367
 20
805.2449808018456
 30
0.0
 11
241.1070937818367
 21
1040.244980801844
 31
0.0
  0
INSERT
  5
575A
330
567A
100
AcDbEntity
  8
SUNPOU
 62
     0
100
AcDbBlockReference
  2
ARROW
 10
241.1070937818367
 20
792.7449808018455
 30
0.0
 41
12.5
 42
12.5
 43
12.5
 50
270.0
  0
INSERT
  5
575B
330
567A
100
AcDbEntity
  8
SUNPOU
 62
     0
100
AcDbBlockReference
  2
ARROW
 10
241.1070937818367
 20
1052.744980801844
 30
0.0
 41
12.5
 42
12.5
 43
12.5
 50
90.0
  0
MTEXT
  5
575C
330
567A
100
AcDbEntity
  8
SUNPOU
 62
     0
100
AcDbMText
 10
228.6070937818365
 20
922.744980801845
 30
0.0
 40
15.0
 41
0.0
 71
     5
 72
     1
  1
\A1;260
 11
0.0000000000000001
 21
1.0
 31
0.0
1001
ACAD
1000
MTEXTBEGIN
1070
    73
1070
     1
1070
    44
1040
1.0
1070
    74
1070
     0
1000
MTEXTEND
  0
POINT
  5
575D
330
567A
100
AcDbEntity
  8
DEFPOINTS
 62
     0
100
AcDbPoint
 10
322.5236901554408
 20
792.7449808018455
 30
0.0
  0
POINT
  5
575E
330
567A
100
AcDbEntity
  8
DEFPOINTS
 62
     0
100
AcDbPoint
 10
322.5236901554399
 20
1052.744980801844
 30
0.0
  0
POINT
  5
575F
330
567A
100
AcDbEntity
  8
DEFPOINTS
 62
     0
100
AcDbPoint
 10
241.1070937818367
 20
1052.744980801844
 30
0.0
  0
ENDBLK
  5
5685
330
567A
100
AcDbEntity
  8
0
100
AcDbBlockEnd
  0
BLOCK
  5
5691
330
5687
100
AcDbEntity
  8
0
100
AcDbBlockBegin
  2
*D31
 70
     1
 10
0.0
 20
0.0
 30
0.0
  3
*D31
  1

  0
LINE
  5
573C
330
5687
100
AcDbEntity
  8
SUNPOU
 62
     0
100
AcDbLine
 10
336.5236901554408
 20
1022.744980801845
 30
0.0
 11
336.5236901554408
 21
1097.137101924916
 31
0.0
  0
LINE
  5
573D
330
5687
100
AcDbEntity
  8
SUNPOU
 62
     0
100
AcDbLine
 10
515.5236901554399
 20
1022.744980801845
 30
0.0
 11
515.5236901554399
 21
1097.137101924916
 31
0.0
  0
LINE
  5
573E
330
5687
100
AcDbEntity
  8
SUNPOU
 62
     0
100
AcDbLine
 10
349.0236901554408
 20
1092.137101924916
 30
0.0
 11
503.0236901554399
 21
1092.137101924916
 31
0.0
  0
INSERT
  5
573F
330
5687
100
AcDbEntity
  8
SUNPOU
 62
     0
100
AcDbBlockReference
  2
ARROW
 10
336.5236901554408
 20
1092.137101924916
 30
0.0
 41
12.5
 42
12.5
 43
12.5
 50
180.0
  0
INSERT
  5
5740
330
5687
100
AcDbEntity
  8
SUNPOU
 62
     0
100
AcDbBlockReference
  2
ARROW
 10
515.5236901554399
 20
1092.137101924916
 30
0.0
 41
12.5
 42
12.5
 43
12.5
  0
MTEXT
  5
5741
330
5687
100
AcDbEntity
  8
SUNPOU
 62
     0
100
AcDbMText
 10
426.0236901554403
 20
1104.637101924916
 30
0.0
 40
15.0
 41
0.0
 71
     5
 72
     1
  1
\A1;179
1001
ACAD
1000
MTEXTBEGIN
1070
    73
1070
     1
1070
    44
1040
1.0
1070
    74
1070
     0
1000
MTEXTEND
  0
POINT
  5
5742
330
5687
100
AcDbEntity
  8
DEFPOINTS
 62
     0
100
AcDbPoint
 10
336.5236901554408
 20
1017.744980801845
 30
0.0
  0
POINT
  5
5743
330
5687
100
AcDbEntity
  8
DEFPOINTS
 62
     0
100
AcDbPoint
 10
515.5236901554399
 20
1017.744980801845
 30
0.0
  0
POINT
  5
5744
330
5687
100
AcDbEntity
  8
DEFPOINTS
 62
     0
100
AcDbPoint
 10
515.5236901554399
 20
1092.137101924916
 30
0.0
  0
ENDBLK
  5
5692
330
5687
100
AcDbEntity
  8
0
100
AcDbBlockEnd
  0
BLOCK
  5
569E
330
5694
100
AcDbEntity
  8
0
100
AcDbBlockBegin
  2
*D32
 70
     1
 10
0.0
 20
0.0
 30
0.0
  3
*D32
  1

  0
LINE
  5
590B
330
5694
100
AcDbEntity
  8
SUNPOU
 62
     0
100
AcDbLine
 10
515.5236901554399
 20
1022.744980801845
 30
0.0
 11
515.5236901554399
 21
1097.137101924916
 31
0.0
  0
LINE
  5
590C
330
5694
100
AcDbEntity
  8
SUNPOU
 62
     0
100
AcDbLine
 10
634.0236901554401
 20
940.7449808018455
 30
0.0
 11
634.0236901554401
 21
1097.137101924916
 31
0.0
  0
LINE
  5
590D
330
5694
100
AcDbEntity
  8
SUNPOU
 62
     0
100
AcDbLine
 10
528.0236901554399
 20
1092.137101924916
 30
0.0
 11
621.5236901554401
 21
1092.137101924916
 31
0.0
  0
INSERT
  5
590E
330
5694
100
AcDbEntity
  8
SUNPOU
 62
     0
100
AcDbBlockReference
  2
ARROW
 10
515.5236901554399
 20
1092.137101924916
 30
0.0
 41
12.5
 42
12.5
 43
12.5
 50
180.0
  0
INSERT
  5
590F
330
5694
100
AcDbEntity
  8
SUNPOU
 62
     0
100
AcDbBlockReference
  2
ARROW
 10
634.0236901554401
 20
1092.137101924916
 30
0.0
 41
12.5
 42
12.5
 43
12.5
  0
MTEXT
  5
5910
330
5694
100
AcDbEntity
  8
SUNPOU
 62
     0
100
AcDbMText
 10
574.77369015544
 20
1104.637101924916
 30
0.0
 40
15.0
 41
0.0
 71
     5
 72
     1
  1
\A1;118.5
  0
POINT
  5
5911
330
5694
100
AcDbEntity
  8
DEFPOINTS
 62
     0
100
AcDbPoint
 10
515.5236901554399
 20
1017.744980801845
 30
0.0
  0
POINT
  5
5912
330
5694
100
AcDbEntity
  8
DEFPOINTS
 62
     0
100
AcDbPoint
 10
634.0236901554401
 20
935.7449808018454
 30
0.0
  0
POINT
  5
5913
330
5694
100
AcDbEntity
  8
DEFPOINTS
 62
     0
100
AcDbPoint
 10
634.0236901554401
 20
1092.137101924916
 30
0.0
  0
ENDBLK
  5
569F
330
5694
100
AcDbEntity
  8
0
100
AcDbBlockEnd
  0
BLOCK
  5
56B8
330
56AE
100
AcDbEntity
  8
0
100
AcDbBlockBegin
  2
*D33
 70
     1
 10
0.0
 20
0.0
 30
0.0
  3
*D33
  1

  0
LINE
  5
5760
330
56AE
100
AcDbEntity
  8
SUNPOU
 62
     0
100
AcDbLine
 10
364.0236901554398
 20
479.568594766722
 30
0.0
 11
364.0236901554398
 21
346.8654684554822
 31
0.0
  0
LINE
  5
5761
330
56AE
100
AcDbEntity
  8
SUNPOU
 62
     0
100
AcDbLine
 10
488.0236901554399
 20
479.568594766722
 30
0.0
 11
488.0236901554399
 21
346.8654684554822
 31
0.0
  0
LINE
  5
5762
330
56AE
100
AcDbEntity
  8
SUNPOU
 62
     0
100
AcDbLine
 10
376.5236901554398
 20
351.8654684554821
 30
0.0
 11
475.5236901554399
 21
351.8654684554821
 31
0.0
  0
INSERT
  5
5763
330
56AE
100
AcDbEntity
  8
SUNPOU
 62
     0
100
AcDbBlockReference
  2
ARROW
 10
364.0236901554398
 20
351.8654684554821
 30
0.0
 41
12.5
 42
12.5
 43
12.5
 50
180.0
  0
INSERT
  5
5764
330
56AE
100
AcDbEntity
  8
SUNPOU
 62
     0
100
AcDbBlockReference
  2
ARROW
 10
488.0236901554399
 20
351.8654684554821
 30
0.0
 41
12.5
 42
12.5
 43
12.5
  0
MTEXT
  5
5765
330
56AE
100
AcDbEntity
  8
SUNPOU
 62
     0
100
AcDbMText
 10
426.0236901554399
 20
364.3654684554821
 30
0.0
 40
15.0
 41
0.0
 71
     5
 72
     1
  1
\A1;124
1001
ACAD
1000
MTEXTBEGIN
1070
    73
1070
     1
1070
    44
1040
1.0
1070
    74
1070
     0
1000
MTEXTEND
  0
POINT
  5
5766
330
56AE
100
AcDbEntity
  8
DEFPOINTS
 62
     0
100
AcDbPoint
 10
364.0236901554398
 20
484.568594766722
 30
0.0
  0
POINT
  5
5767
330
56AE
100
AcDbEntity
  8
DEFPOINTS
 62
     0
100
AcDbPoint
 10
488.0236901554399
 20
484.568594766722
 30
0.0
  0
POINT
  5
5768
330
56AE
100
AcDbEntity
  8
DEFPOINTS
 62
     0
100
AcDbPoint
 10
488.0236901554399
 20
351.8654684554821
 30
0.0
  0
ENDBLK
  5
56B9
330
56AE
100
AcDbEntity
  8
0
100
AcDbBlockEnd
  0
BLOCK
  5
56D2
330
56C8
100
AcDbEntity
  8
0
100
AcDbBlockBegin
  2
*D34
 70
     1
 10
0.0
 20
0.0
 30
0.0
  3
*D34
  1

  0
LINE
  5
572A
330
56C8
100
AcDbEntity
  8
SUNPOU
 62
     0
100
AcDbLine
 10
777.6308180064098
 20
479.5685947667225
 30
0.0
 11
777.6308180064098
 21
346.7605223864193
 31
0.0
  0
LINE
  5
572B
330
56C8
100
AcDbEntity
  8
SUNPOU
 62
     0
100
AcDbLine
 10
997.6308180064098
 20
479.568594766722
 30
0.0
 11
997.6308180064098
 21
346.7605223864193
 31
0.0
  0
LINE
  5
572C
330
56C8
100
AcDbEntity
  8
SUNPOU
 62
     0
100
AcDbLine
 10
790.1308180064098
 20
351.7605223864193
 30
0.0
 11
985.1308180064098
 21
351.7605223864193
 31
0.0
  0
INSERT
  5
572D
330
56C8
100
AcDbEntity
  8
SUNPOU
 62
     0
100
AcDbBlockReference
  2
ARROW
 10
777.6308180064098
 20
351.7605223864193
 30
0.0
 41
12.5
 42
12.5
 43
12.5
 50
180.0
  0
INSERT
  5
572E
330
56C8
100
AcDbEntity
  8
SUNPOU
 62
     0
100
AcDbBlockReference
  2
ARROW
 10
997.6308180064098
 20
351.7605223864193
 30
0.0
 41
12.5
 42
12.5
 43
12.5
  0
MTEXT
  5
572F
330
56C8
100
AcDbEntity
  8
SUNPOU
 62
     0
100
AcDbMText
 10
887.6308180064098
 20
364.2605223864193
 30
0.0
 40
15.0
 41
0.0
 71
     5
 72
     1
  1
\A1;220
1001
ACAD
1000
MTEXTBEGIN
1070
    73
1070
     1
1070
    44
1040
1.0
1070
    74
1070
     0
1000
MTEXTEND
  0
POINT
  5
5730
330
56C8
100
AcDbEntity
  8
DEFPOINTS
 62
     0
100
AcDbPoint
 10
777.6308180064098
 20
484.5685947667225
 30
0.0
  0
POINT
  5
5731
330
56C8
100
AcDbEntity
  8
DEFPOINTS
 62
     0
100
AcDbPoint
 10
997.6308180064098
 20
484.568594766722
 30
0.0
  0
POINT
  5
5732
330
56C8
100
AcDbEntity
  8
DEFPOINTS
 62
     0
100
AcDbPoint
 10
997.6308180064098
 20
351.7605223864193
 30
0.0
  0
ENDBLK
  5
56D3
330
56C8
100
AcDbEntity
  8
0
100
AcDbBlockEnd
  0
BLOCK
  5
56DF
330
56D5
100
AcDbEntity
  8
0
100
AcDbBlockBegin
  2
*D35
 70
     1
 10
0.0
 20
0.0
 30
0.0
  3
*D35
  1

  0
LINE
  5
5733
330
56D5
100
AcDbEntity
  8
SUNPOU
 62
     0
100
AcDbLine
 10
318.5236901554399
 20
1053.744980801845
 30
0.0
 11
318.5236901554399
 21
1159.657487796797
 31
0.0
  0
LINE
  5
5734
330
56D5
100
AcDbEntity
  8
SUNPOU
 62
     0
100
AcDbLine
 10
634.02369015544
 20
940.7449808018455
 30
0.0
 11
634.02369015544
 21
1159.657487796797
 31
0.0
  0
LINE
  5
5735
330
56D5
100
AcDbEntity
  8
SUNPOU
 62
     0
100
AcDbLine
 10
331.0236901554399
 20
1154.657487796797
 30
0.0
 11
621.52369015544
 21
1154.657487796797
 31
0.0
  0
INSERT
  5
5736
330
56D5
100
AcDbEntity
  8
SUNPOU
 62
     0
100
AcDbBlockReference
  2
ARROW
 10
318.5236901554399
 20
1154.657487796797
 30
0.0
 41
12.5
 42
12.5
 43
12.5
 50
180.0
  0
INSERT
  5
5737
330
56D5
100
AcDbEntity
  8
SUNPOU
 62
     0
100
AcDbBlockReference
  2
ARROW
 10
634.02369015544
 20
1154.657487796797
 30
0.0
 41
12.5
 42
12.5
 43
12.5
  0
MTEXT
  5
5738
330
56D5
100
AcDbEntity
  8
SUNPOU
 62
     0
100
AcDbMText
 10
476.2736901554399
 20
1167.157487796797
 30
0.0
 40
15.0
 41
0.0
 71
     5
 72
     1
  1
\A1;315.5
1001
ACAD
1000
MTEXTBEGIN
1070
    73
1070
     1
1070
    44
1040
1.0
1070
    74
1070
     0
1000
MTEXTEND
  0
POINT
  5
5739
330
56D5
100
AcDbEntity
  8
DEFPOINTS
 62
     0
100
AcDbPoint
 10
318.5236901554399
 20
1048.744980801845
 30
0.0
  0
POINT
  5
573A
330
56D5
100
AcDbEntity
  8
DEFPOINTS
 62
     0
100
AcDbPoint
 10
634.02369015544
 20
935.7449808018454
 30
0.0
  0
POINT
  5
573B
330
56D5
100
AcDbEntity
  8
DEFPOINTS
 62
     0
100
AcDbPoint
 10
634.02369015544
 20
1154.657487796797
 30
0.0
  0
ENDBLK
  5
56E0
330
56D5
100
AcDbEntity
  8
0
100
AcDbBlockEnd
  0
BLOCK
  5
56EE
330
56E2
100
AcDbEntity
  8
0
100
AcDbBlockBegin
  2
*D36
 70
     1
 10
0.0
 20
0.0
 30
0.0
  3
*D36
  1

  0
LINE
  5
5784
330
56E2
100
AcDbEntity
  8
SUNPOU
 62
     0
100
AcDbLine
 10
1009.089635855135
 20
391.5685947667224
 30
0.0
 11
1048.307276154155
 21
391.5685947667224
 31
0.0
  0
LINE
  5
5785
330
56E2
100
AcDbEntity
  8
SUNPOU
 62
     0
100
AcDbLine
 10
1022.630818006409
 20
413.5685947667225
 30
0.0
 11
1048.307276154155
 21
413.5685947667225
 31
0.0
  0
LINE
  5
5786
330
56E2
100
AcDbEntity
  8
SUNPOU
 62
     0
100
AcDbLine
 10
1043.307276154155
 20
379.0685947667224
 30
0.0
 11
1043.307276154155
 21
366.5685947667224
 31
0.0
  0
LINE
  5
5787
330
56E2
100
AcDbEntity
  8
SUNPOU
 62
     0
100
AcDbLine
 10
1043.307276154155
 20
426.0685947667225
 30
0.0
 11
1043.307276154155
 21
472.8543090524367
 31
0.0
  0
LINE
  5
5788
330
56E2
100
AcDbEntity
  8
SUNPOU
 62
     0
100
AcDbLine
 10
1043.307276154155
 20
391.5685947667224
 30
0.0
 11
1043.307276154155
 21
413.5685947667225
 31
0.0
  0
INSERT
  5
5789
330
56E2
100
AcDbEntity
  8
SUNPOU
 62
     0
100
AcDbBlockReference
  2
ARROW
 10
1043.307276154155
 20
391.5685947667224
 30
0.0
 41
12.5
 42
12.5
 43
12.5
 50
90.0
  0
INSERT
  5
578A
330
56E2
100
AcDbEntity
  8
SUNPOU
 62
     0
100
AcDbBlockReference
  2
ARROW
 10
1043.307276154155
 20
413.5685947667225
 30
0.0
 41
12.5
 42
12.5
 43
12.5
 50
270.0
  0
MTEXT
  5
578B
330
56E2
100
AcDbEntity
  8
SUNPOU
 62
     0
100
AcDbMText
 10
1030.807276154155
 20
455.7114519095797
 30
0.0
 40
15.0
 41
0.0
 71
     5
 72
     1
  1
\A1;22
 11
0.0000000000000001
 21
1.0
 31
0.0
1001
ACAD
1000
MTEXTBEGIN
1070
    73
1070
     1
1070
    44
1040
1.0
1070
    74
1070
     0
1000
MTEXTEND
  0
POINT
  5
578C
330
56E2
100
AcDbEntity
  8
DEFPOINTS
 62
     0
100
AcDbPoint
 10
1004.089635855135
 20
391.5685947667224
 30
0.0
  0
POINT
  5
578D
330
56E2
100
AcDbEntity
  8
DEFPOINTS
 62
     0
100
AcDbPoint
 10
1017.630818006409
 20
413.5685947667225
 30
0.0
  0
POINT
  5
578E
330
56E2
100
AcDbEntity
  8
DEFPOINTS
 62
     0
100
AcDbPoint
 10
1043.307276154155
 20
413.5685947667225
 30
0.0
  0
ENDBLK
  5
56EF
330
56E2
100
AcDbEntity
  8
0
100
AcDbBlockEnd
  0
BLOCK
  5
56FB
330
56F1
100
AcDbEntity
  8
0
100
AcDbBlockBegin
  2
*D37
 70
     1
 10
0.0
 20
0.0
 30
0.0
  3
*D37
  1

  0
LINE
  5
578F
330
56F1
100
AcDbEntity
  8
SUNPOU
 62
     0
100
AcDbLine
 10
1009.089635855135
 20
391.5685947667224
 30
0.0
 11
1079.877813913168
 21
391.5685947667224
 31
0.0
  0
LINE
  5
5790
330
56F1
100
AcDbEntity
  8
SUNPOU
 62
     0
100
AcDbLine
 10
998.6308180064098
 20
488.5685947667225
 30
0.0
 11
1079.877813913168
 21
488.5685947667225
 31
0.0
  0
LINE
  5
5791
330
56F1
100
AcDbEntity
  8
SUNPOU
 62
     0
100
AcDbLine
 10
1074.877813913168
 20
404.0685947667224
 30
0.0
 11
1074.877813913168
 21
476.0685947667225
 31
0.0
  0
INSERT
  5
5792
330
56F1
100
AcDbEntity
  8
SUNPOU
 62
     0
100
AcDbBlockReference
  2
ARROW
 10
1074.877813913168
 20
391.5685947667224
 30
0.0
 41
12.5
 42
12.5
 43
12.5
 50
270.0
  0
INSERT
  5
5793
330
56F1
100
AcDbEntity
  8
SUNPOU
 62
     0
100
AcDbBlockReference
  2
ARROW
 10
1074.877813913168
 20
488.5685947667225
 30
0.0
 41
12.5
 42
12.5
 43
12.5
 50
90.0
  0
MTEXT
  5
5794
330
56F1
100
AcDbEntity
  8
SUNPOU
 62
     0
100
AcDbMText
 10
1062.377813913168
 20
440.0685947667226
 30
0.0
 40
15.0
 41
0.0
 71
     5
 72
     1
  1
\A1;97
 11
0.0000000000000001
 21
1.0
 31
0.0
1001
ACAD
1000
MTEXTBEGIN
1070
    73
1070
     1
1070
    44
1040
1.0
1070
    74
1070
     0
1000
MTEXTEND
  0
POINT
  5
5795
330
56F1
100
AcDbEntity
  8
DEFPOINTS
 62
     0
100
AcDbPoint
 10
1004.089635855135
 20
391.5685947667224
 30
0.0
  0
POINT
  5
5796
330
56F1
100
AcDbEntity
  8
DEFPOINTS
 62
     0
100
AcDbPoint
 10
993.6308180064097
 20
488.5685947667225
 30
0.0
  0
POINT
  5
5797
330
56F1
100
AcDbEntity
  8
DEFPOINTS
 62
     0
100
AcDbPoint
 10
1074.877813913168
 20
488.5685947667225
 30
0.0
  0
ENDBLK
  5
56FC
330
56F1
100
AcDbEntity
  8
0
100
AcDbBlockEnd
  0
BLOCK
  5
5708
330
56FE
100
AcDbEntity
  8
0
100
AcDbBlockBegin
  2
*D38
 70
     1
 10
0.0
 20
0.0
 30
0.0
  3
*D38
  1

  0
LINE
  5
577B
330
56FE
100
AcDbEntity
  8
SUNPOU
 62
     0
100
AcDbLine
 10
1009.089635855135
 20
391.5685947667224
 30
0.0
 11
1109.424836764024
 21
391.5685947667224
 31
0.0
  0
LINE
  5
577C
330
56FE
100
AcDbEntity
  8
SUNPOU
 62
     0
100
AcDbLine
 10
893.2466345082954
 20
708.5685947667216
 30
0.0
 11
1109.424836764024
 21
708.5685947667216
 31
0.0
  0
LINE
  5
577D
330
56FE
100
AcDbEntity
  8
SUNPOU
 62
     0
100
AcDbLine
 10
1104.424836764024
 20
404.0685947667224
 30
0.0
 11
1104.424836764024
 21
696.0685947667216
 31
0.0
  0
INSERT
  5
577E
330
56FE
100
AcDbEntity
  8
SUNPOU
 62
     0
100
AcDbBlockReference
  2
ARROW
 10
1104.424836764024
 20
391.5685947667224
 30
0.0
 41
12.5
 42
12.5
 43
12.5
 50
270.0
  0
INSERT
  5
577F
330
56FE
100
AcDbEntity
  8
SUNPOU
 62
     0
100
AcDbBlockReference
  2
ARROW
 10
1104.424836764024
 20
708.5685947667216
 30
0.0
 41
12.5
 42
12.5
 43
12.5
 50
90.0
  0
MTEXT
  5
5780
330
56FE
100
AcDbEntity
  8
SUNPOU
 62
     0
100
AcDbMText
 10
1091.924836764024
 20
550.0685947667221
 30
0.0
 40
15.0
 41
0.0
 71
     5
 72
     1
  1
\A1;317
 11
0.0000000000000001
 21
1.0
 31
0.0
1001
ACAD
1000
MTEXTBEGIN
1070
    73
1070
     1
1070
    44
1040
1.0
1070
    74
1070
     0
1000
MTEXTEND
  0
POINT
  5
5781
330
56FE
100
AcDbEntity
  8
DEFPOINTS
 62
     0
100
AcDbPoint
 10
1004.089635855135
 20
391.5685947667224
 30
0.0
  0
POINT
  5
5782
330
56FE
100
AcDbEntity
  8
DEFPOINTS
 62
     0
100
AcDbPoint
 10
888.2466345082955
 20
708.5685947667216
 30
0.0
  0
POINT
  5
5783
330
56FE
100
AcDbEntity
  8
DEFPOINTS
 62
     0
100
AcDbPoint
 10
1104.424836764024
 20
708.5685947667216
 30
0.0
  0
ENDBLK
  5
5709
330
56FE
100
AcDbEntity
  8
0
100
AcDbBlockEnd
  0
BLOCK
  5
5715
330
570B
100
AcDbEntity
  8
0
100
AcDbBlockBegin
  2
*D39
 70
     1
 10
0.0
 20
0.0
 30
0.0
  3
*D39
  1

  0
LINE
  5
5769
330
570B
100
AcDbEntity
  8
SUNPOU
 62
     0
100
AcDbLine
 10
541.0236901554399
 20
807.7449808018455
 30
0.0
 11
688.876871669454
 21
807.7449808018455
 31
0.0
  0
LINE
  5
576A
330
570B
100
AcDbEntity
  8
SUNPOU
 62
     0
100
AcDbLine
 10
541.0236901554399
 20
1037.744980801845
 30
0.0
 11
688.876871669454
 21
1037.744980801845
 31
0.0
  0
LINE
  5
576B
330
570B
100
AcDbEntity
  8
SUNPOU
 62
     0
100
AcDbLine
 10
683.8768716694541
 20
820.2449808018455
 30
0.0
 11
683.8768716694541
 21
1025.244980801845
 31
0.0
  0
INSERT
  5
576C
330
570B
100
AcDbEntity
  8
SUNPOU
 62
     0
100
AcDbBlockReference
  2
ARROW
 10
683.8768716694541
 20
807.7449808018455
 30
0.0
 41
12.5
 42
12.5
 43
12.5
 50
270.0
  0
INSERT
  5
576D
330
570B
100
AcDbEntity
  8
SUNPOU
 62
     0
100
AcDbBlockReference
  2
ARROW
 10
683.8768716694541
 20
1037.744980801845
 30
0.0
 41
12.5
 42
12.5
 43
12.5
 50
90.0
  0
MTEXT
  5
576E
330
570B
100
AcDbEntity
  8
SUNPOU
 62
     0
100
AcDbMText
 10
671.3768716694538
 20
922.7449808018457
 30
0.0
 40
15.0
 41
0.0
 71
     5
 72
     1
  1
\A1;%%c230
 11
0.0000000000000001
 21
1.0
 31
0.0
1001
ACAD
1000
MTEXTBEGIN
1070
    73
1070
     1
1070
    44
1040
1.0
1070
    74
1070
     0
1000
MTEXTEND
  0
POINT
  5
576F
330
570B
100
AcDbEntity
  8
DEFPOINTS
 62
     0
100
AcDbPoint
 10
536.0236901554399
 20
807.7449808018455
 30
0.0
  0
POINT
  5
5770
330
570B
100
AcDbEntity
  8
DEFPOINTS
 62
     0
100
AcDbPoint
 10
536.0236901554399
 20
1037.744980801845
 30
0.0
  0
POINT
  5
5771
330
570B
100
AcDbEntity
  8
DEFPOINTS
 62
     0
100
AcDbPoint
 10
683.8768716694541
 20
1037.744980801845
 30
0.0
  0
ENDBLK
  5
5716
330
570B
100
AcDbEntity
  8
0
100
AcDbBlockEnd
  0
BLOCK
  5
588F
330
588E
100
AcDbEntity
  8
0
100
AcDbBlockBegin
  2
*U40
 70
     1
 10
0.0
 20
0.0
 30
0.0
  3
*U40
  1

  0
ENDBLK
  5
5890
330
588E
100
AcDbEntity
  8
0
100
AcDbBlockEnd
  0
ENDSEC
  0
SECTION
  2
ENTITIES
  0
TEXT
  5
763
330
18
100
AcDbEntity
  8
TEXT
100
AcDbText
 10
1382.651422395303
 20
1224.938790003171
 30
0.0
 40
20.0
  1
外形寸法：巾315.5  ×奥行260  ×高さ317
  7
K
100
AcDbText
  0
LINE
  5
764
330
18
100
AcDbEntity
  8
TEXT
100
AcDbLine
 10
1379.523361580924
 20
1218.295315952691
 30
0.0
 11
1967.208666490896
 21
1218.295315952691
 31
0.0
  0
TEXT
  5
765
330
18
100
AcDbEntity
  8
TEXT
100
AcDbText
 10
1382.651422395303
 20
1190.938790003171
 30
0.0
 40
20.0
  1
質  量  ：5 Kg
  7
K
100
AcDbText
  0
LINE
  5
766
330
18
100
AcDbEntity
  8
TEXT
100
AcDbLine
 10
1379.523361580924
 20
1184.295315952691
 30
0.0
 11
1967.208666490896
 21
1184.295315952691
 31
0.0
  0
TEXT
  5
767
330
18
100
AcDbEntity
  8
TEXT
100
AcDbText
 10
1382.651422395303
 20
1156.938790003171
 30
0.0
 40
20.0
  1
標準能力：0.6（kg/min）ｸﾗｯｼｭ粗さ約12mm
  7
K
100
AcDbText
  0
LINE
  5
768
330
18
100
AcDbEntity
  8
TEXT
100
AcDbLine
 10
1379.523361580924
 20
1150.295315952691
 30
0.0
 11
1967.208666490896
 21
1150.295315952691
 31
0.0
  0
INSERT
  5
76A
330
18
100
AcDbEntity
  8
HOJO
100
AcDbBlockReference
  2
A$C19783D3A
 10
79.99999061090398
 20
0.9999970993021634
 30
0.0
 41
5.0
 42
5.0
 43
5.0
  0
MTEXT
  5
7B6
330
18
100
AcDbEntity
  8
TEXT
100
AcDbMText
 10
101.8741013286378
 20
78.30026074688612
 30
0.0
 40
12.0
 41
182.3499999999999
 71
     1
 72
     5
  1
HA-1700
1001
ACAD
1000
MTEXTBEGIN
1070
    73
1070
     1
1070
    44
1040
1.0
1070
    74
1070
     0
1000
MTEXTEND
  0
MTEXT
  5
7B7
330
18
100
AcDbEntity
  8
TEXT
100
AcDbMText
 10
209.5170753606614
 20
77.4339089559362
 30
0.0
 40
12.0
 41
182.3499999999999
 71
     1
 72
     5
  1
1
1001
ACAD
1000
MTEXTBEGIN
1070
    73
1070
     1
1070
    44
1040
1.0
1070
    74
1070
     0
1000
MTEXTEND
  0
LINE
  5
B42
330
18
100
AcDbEntity
  8
SUNPOU
100
AcDbLine
 10
1334.849930265654
 20
196.4654368631181
 30
0.0
 11
1414.849930265654
 21
196.4654368631181
 31
0.0
  0
LINE
  5
B43
330
18
100
AcDbEntity
  8
SUNPOU
100
AcDbLine
 10
1334.849930265654
 20
257.7802593500791
 30
0.0
 11
1414.849930265654
 21
257.7802593500791
 31
0.0
  0
TEXT
  5
C2F
330
18
100
AcDbEntity
  8
TEXT
100
AcDbText
 10
1382.651422395303
 20
1258.938790003171
 30
0.0
 40
20.0
  1
仕 様
  7
K
100
AcDbText
  0
LINE
  5
C30
330
18
100
AcDbEntity
  8
TEXT
100
AcDbLine
 10
1379.523361580924
 20
1252.295315952691
 30
0.0
 11
1448.223603260454
 21
1252.295315952691
 31
0.0
  0
MTEXT
  5
C31
330
18
100
AcDbEntity
  8
TEXT
100
AcDbMText
 10
1751.449046878041
 20
131.715575833763
 30
0.0
 40
20.0
 41
182.3499999999999
 71
     1
 72
     5
  1
HA-1700
1001
ACAD
1000
MTEXTBEGIN
1070
    73
1070
     1
1070
    44
1040
1.0
1070
    74
1070
     0
1000
MTEXTEND
  0
MTEXT
  5
C32
330
18
100
AcDbEntity
  8
TEXT
100
AcDbMText
 10
1548.66480033717
 20
239.8517945075236
 30
0.0
 40
20.0
 41
263.87
 71
     1
 72
     5
  1
HA-1700 外形図
1001
ACAD
1000
MTEXTBEGIN
1070
    73
1070
     1
1070
    44
1040
1.0
1070
    74
1070
     0
1000
MTEXTEND
  0
MTEXT
  5
C35
330
18
100
AcDbEntity
  8
SUNPOU
100
AcDbMText
 10
1635.845993179209
 20
130.6886123714157
 30
0.0
 40
10.0
 41
0.0
 71
     5
 72
     1
  1
04 5  19
1001
ACAD
1000
MTEXTBEGIN
1070
    73
1070
     1
1070
    44
1040
1.0
1070
    74
1070
     0
1000
MTEXTEND
  0
MTEXT
  5
C37
330
18
100
AcDbEntity
  8
TEXT
100
AcDbMText
 10
1868.236572463021
 20
187.8875245075851
 30
0.0
 40
15.0
 41
182.3499999999999
 71
     1
 72
     5
  1
1/5
1001
ACAD
1000
MTEXTBEGIN
1070
    73
1070
     1
1070
    44
1040
1.0
1070
    74
1070
     0
1000
MTEXTEND
  0
LINE
  5
C38
330
18
100
AcDbEntity
  8
SUNPOU
100
AcDbLine
 10
1914.984713863817
 20
211.9877543753282
 30
0.0
 11
1969.984713863817
 21
211.9877543753282
 31
0.0
  0
LINE
  5
C39
330
18
100
AcDbEntity
  8
SUNPOU
100
AcDbLine
 10
1914.984713863817
 20
251.9877543753282
 30
0.0
 11
1969.984713863817
 21
251.9877543753282
 31
0.0
  0
INSERT
  5
D4E
330
18
100
AcDbEntity
  8
0
100
AcDbBlockReference
  2
_IMCADLT3
 10
0.0
 20
0.0
 30
0.0
  0
XLINE
  5
1C8B
330
18
100
AcDbEntity
  8
HOJO
100
AcDbXline
 10
8420.715585887093
 20
2586.570196559486
 30
0.0
 11
0.0
 21
1.0
 31
0.0
  0
LINE
  5
2521
330
18
100
AcDbEntity
  8
SUNPOU
100
AcDbLine
 10
1334.849930265654
 20
227.1228481065981
 30
0.0
 11
1414.849930265654
 21
227.1228481065981
 31
0.0
  0
LINE
  5
517C
330
18
100
AcDbEntity
  8
JISSEN
100
AcDbLine
 10
1113.181991599996
 20
30.0
 30
0.0
 11
1248.181991599997
 21
183.0277662695579
 31
0.0
  0
LINE
  5
517D
330
18
100
AcDbEntity
  8
JISSEN
100
AcDbLine
 10
1283.181991599997
 20
30.0
 30
0.0
 11
1493.181991599997
 21
183.0277662695579
 31
0.0
  0
LINE
  5
5472
330
18
100
AcDbEntity
  8
ITTEN
100
AcDbLine
 10
426.0236901554399
 20
1087.655046186599
 30
0.0
 11
426.0236901554399
 21
374.6670265013344
 31
0.0
  0
LINE
  5
5473
330
18
100
AcDbEntity
  8
ITTEN
100
AcDbLine
 10
280.0419841012808
 20
922.7449808018455
 30
0.0
 11
650.7792158175216
 21
922.7449808018455
 31
0.0
  0
LINE
  5
5474
330
18
100
AcDbEntity
  8
ITTEN
100
AcDbLine
 10
280.0419841012808
 20
566.5685947667225
 30
0.0
 11
1059.598089704326
 21
566.5685947667225
 31
0.0
  0
ARC
  5
5475
330
18
100
AcDbEntity
  8
JISSEN
100
AcDbCircle
 10
611.5236901554399
 20
476.5814066795328
 30
0.0
 40
1.500158933104159
100
AcDbArc
 50
180.8340268099695
 51
359.1659731900304
  0
ARC
  5
5476
330
18
100
AcDbEntity
  8
JISSEN
100
AcDbCircle
 10
611.5236901554399
 20
446.5557828539122
 30
0.0
 40
1.500158933104159
100
AcDbArc
 50
0.8340268099695936
 51
179.1659731900304
  0
ARC
  5
5477
330
18
100
AcDbEntity
  8
JISSEN
100
AcDbCircle
 10
611.5236901554399
 20
907.7321688890352
 30
0.0
 40
1.500158933104159
100
AcDbArc
 50
0.8340268099695936
 51
179.1659731900304
  0
ARC
  5
5478
330
18
100
AcDbEntity
  8
JISSEN
100
AcDbCircle
 10
611.5236901554399
 20
937.7577927146559
 30
0.0
 40
1.500158933104159
100
AcDbArc
 50
180.8340268099695
 51
359.1659731900304
  0
LINE
  5
5479
330
18
100
AcDbEntity
  8
JISSEN
100
AcDbLine
 10
499.5236901554399
 20
657.5127064696726
 30
0.0
 11
499.5236901554399
 21
690.5685947667225
 31
0.0
  0
LINE
  5
547A
330
18
100
AcDbEntity
  8
JISSEN
100
AcDbLine
 10
524.0236901554399
 20
451.5685947667225
 30
0.0
 11
524.0236901554399
 21
681.5685947667225
 31
0.0
  0
LINE
  5
547B
330
18
100
AcDbEntity
  8
JISSEN
100
AcDbLine
 10
522.0236901554399
 20
679.5685947667225
 30
0.0
 11
522.0236901554399
 21
453.5685947667225
 31
0.0
  0
LINE
  5
547C
330
18
100
AcDbEntity
  8
JISSEN
100
AcDbLine
 10
536.0236901554399
 20
681.5685947667225
 30
0.0
 11
536.0236901554399
 21
451.5685947667225
 31
0.0
  0
LINE
  5
547D
330
18
100
AcDbEntity
  8
JISSEN
100
AcDbLine
 10
538.0236901554399
 20
679.5685947667225
 30
0.0
 11
538.0236901554399
 21
453.5685947667225
 31
0.0
  0
LINE
  5
547E
330
18
100
AcDbEntity
  8
JISSEN
100
AcDbLine
 10
352.5236901554399
 20
657.5127064696726
 30
0.0
 11
352.5236901554399
 21
690.5685947667225
 31
0.0
  0
LINE
  5
5480
330
18
100
AcDbEntity
  8
JISSEN
100
AcDbLine
 10
484.0236901554399
 20
488.5685947667216
 30
0.0
 11
368.0236901554398
 21
488.5685947667225
 31
0.0
  0
LINE
  5
5481
330
18
100
AcDbEntity
  8
JISSEN
100
AcDbLine
 10
488.0236901554399
 20
484.5685947667225
 30
0.0
 11
364.0236901554398
 21
484.5685947667225
 31
0.0
  0
LINE
  5
5482
330
18
100
AcDbEntity
  8
JISSEN
100
AcDbLine
 10
318.5236901554399
 20
413.5685947667225
 30
0.0
 11
533.5236901554399
 21
413.5685947667225
 31
0.0
  0
LINE
  5
5483
330
18
100
AcDbEntity
  8
JISSEN
100
AcDbLine
 10
332.0648723067142
 20
391.5685947667225
 30
0.0
 11
519.9825080041655
 21
391.5685947667225
 31
0.0
  0
LINE
  5
5484
330
18
100
AcDbEntity
  8
JISSEN
100
AcDbLine
 10
318.5236901554399
 20
411.5685947667225
 30
0.0
 11
533.5236901554399
 21
411.5685947667225
 31
0.0
  0
LINE
  5
5485
330
18
100
AcDbEntity
  8
JISSEN
100
AcDbLine
 10
426.0236901554399
 20
654.5685947667225
 30
0.0
 11
498.5504909025385
 21
656.5130656742094
 31
0.0
  0
LINE
  5
5486
330
18
100
AcDbEntity
  8
JISSEN
100
AcDbLine
 10
932.6991791090264
 20
613.5685947667225
 30
0.0
 11
842.5624569037935
 21
613.5685947667225
 31
0.0
  0
LINE
  5
5487
330
18
100
AcDbEntity
  8
JISSEN
100
AcDbLine
 10
475.5236901554399
 20
519.5685947667225
 30
0.0
 11
376.5236901554398
 21
519.5685947667225
 31
0.0
  0
ARC
  5
5488
330
18
100
AcDbEntity
  8
JISSEN
100
AcDbCircle
 10
1277.769649182157
 20
384.5129381948327
 30
0.0
 40
940.0
100
AcDbArc
 50
168.0617037243846
 51
177.4357274181621
  0
ARC
  5
548D
330
18
100
AcDbEntity
  8
JISSEN
100
AcDbCircle
 10
346.5236901554399
 20
406.5685947667224
 30
0.0
 40
10.0
100
AcDbArc
 50
44.42700400080553
 51
135.5729959991945
  0
ARC
  5
5490
330
18
100
AcDbEntity
  8
JISSEN
100
AcDbCircle
 10
322.6834931302273
 20
410.5685947667224
 30
0.0
 40
1.0
100
AcDbArc
 50
9.926245506651687
 51
90.00000000000003
  0
LINE
  5
5491
330
18
100
AcDbEntity
  8
JISSEN
100
AcDbLine
 10
318.5236901554399
 20
413.5685947667225
 30
0.0
 11
318.5236901554399
 21
411.5685947667225
 31
0.0
  0
LINE
  5
5492
330
18
100
AcDbEntity
  8
JISSEN
100
AcDbLine
 10
331.0236901554399
 20
398.5685947667225
 30
0.0
 11
331.0236901554399
 21
391.65962364411
 31
0.0
  0
LINE
  5
5493
330
18
100
AcDbEntity
  8
JISSEN
100
AcDbLine
 10
323.6685235973827
 20
410.7409750984752
 30
0.0
 11
326.1546895037799
 21
396.5343127762089
 31
0.0
  0
LINE
  5
5494
330
18
100
AcDbEntity
  8
JISSEN
100
AcDbLine
 10
331.0236901554399
 20
398.5685947667225
 30
0.0
 11
328.5236901554398
 21
411.5685947667225
 31
0.0
  0
ARC
  5
5495
330
18
100
AcDbEntity
  8
JISSEN
100
AcDbCircle
 10
332.0648723067142
 20
397.5685947667225
 30
0.0
 40
6.0
100
AcDbArc
 50
189.9262455066531
 51
270.0
  0
LINE
  5
5496
330
18
100
AcDbEntity
  8
JISSEN
100
AcDbLine
 10
338.7109067435876
 20
426.5685947667207
 30
0.0
 11
337.5735541177509
 21
413.5685947667225
 31
0.0
  0
ARC
  5
5498
330
18
100
AcDbEntity
  8
JISSEN
100
AcDbCircle
 10
418.7943791243651
 20
481.4870394394156
 30
0.0
 40
60.0
100
AcDbArc
 50
134.7900909894867
 51
177.0
  0
ARC
  5
5499
330
18
100
AcDbEntity
  8
JISSEN
100
AcDbCircle
 10
368.0236901554398
 20
484.5685947667225
 30
0.0
 40
4.0
100
AcDbArc
 50
90.0
 51
180.0000000000065
  0
LINE
  5
549B
330
18
100
AcDbEntity
  8
JISSEN
100
AcDbLine
 10
373.1449933070425
 20
413.5685947667225
 30
0.0
 11
370.0256194952308
 21
484.5685947667225
 31
0.0
  0
LINE
  5
549C
330
18
100
AcDbEntity
  8
JISSEN
100
AcDbLine
 10
358.8766070390911
 20
484.6271968139917
 30
0.0
 11
355.1525835068368
 21
413.5685947667225
 31
0.0
  0
LINE
  5
549D
330
18
100
AcDbEntity
  8
JISSEN
100
AcDbLine
 10
361.0236901554399
 20
398.5685947667225
 30
0.0
 11
361.0236901554399
 21
391.5685947667225
 31
0.0
  0
LINE
  5
549E
330
18
100
AcDbEntity
  8
JISSEN
100
AcDbLine
 10
361.0236901554399
 20
398.5685947667225
 30
0.0
 11
363.5236901554399
 21
411.5685947667225
 31
0.0
  0
LINE
  5
54A1
330
18
100
AcDbEntity
  8
JISSEN
100
AcDbLine
 10
426.0236901554399
 20
654.5685947667225
 30
0.0
 11
353.4968894083413
 21
656.5130656742094
 31
0.0
  0
LINE
  5
54A2
330
18
100
AcDbEntity
  8
JISSEN
100
AcDbLine
 10
366.1481426401296
 20
586.7391058001503
 30
0.0
 11
376.5236901554398
 21
588.5685947667225
 31
0.0
  0
ARC
  5
54A3
330
18
100
AcDbEntity
  8
JISSEN
100
AcDbCircle
 10
367.8846745520395
 20
576.8910371103556
 30
0.0
 40
10.0
100
AcDbArc
 50
100.0000000000017
 51
168.0617037243808
  0
LINE
  5
54A4
330
18
100
AcDbEntity
  8
JISSEN
100
AcDbLine
 10
376.5236901554398
 20
588.5685947667234
 30
0.0
 11
376.5236901554398
 21
578.5685947667225
 31
0.0
  0
LINE
  5
54A5
330
18
100
AcDbEntity
  8
JISSEN
100
AcDbLine
 10
376.5236901554398
 20
578.5685947667225
 30
0.0
 11
375.5236901554399
 21
578.5685947667225
 31
0.0
  0
LINE
  5
54A6
330
18
100
AcDbEntity
  8
JISSEN
100
AcDbLine
 10
376.5236901554398
 20
534.0685947667225
 30
0.0
 11
375.5236901554399
 21
534.0685947667225
 31
0.0
  0
LINE
  5
54A7
330
18
100
AcDbEntity
  8
JISSEN
100
AcDbLine
 10
376.5236901554398
 20
534.0685947667225
 30
0.0
 11
376.5236901554398
 21
524.0685947667225
 31
0.0
  0
LINE
  5
54A8
330
18
100
AcDbEntity
  8
JISSEN
100
AcDbLine
 10
375.5236901554399
 20
578.5685947667225
 30
0.0
 11
375.5236901554399
 21
534.0685947667225
 31
0.0
  0
ARC
  5
54A9
330
18
100
AcDbEntity
  8
JISSEN
100
AcDbCircle
 10
366.5236901554435
 20
611.0748143265346
 30
0.0
 40
10.0
100
AcDbArc
 50
359.9999999999895
 51
28.00539862633593
  0
LINE
  5
54AA
330
18
100
AcDbEntity
  8
JISSEN
100
AcDbLine
 10
376.5236901554398
 20
611.0748143265327
 30
0.0
 11
376.5236901554398
 21
519.5685947667225
 31
0.0
  0
ARC
  5
54AB
330
18
100
AcDbEntity
  8
JISSEN
100
AcDbCircle
 10
353.5236901554398
 20
657.5127064696726
 30
0.0
 40
1.0
100
AcDbArc
 50
180.0
 51
256.423131094452
  0
ARC
  5
54AC
330
18
100
AcDbEntity
  8
JISSEN
100
AcDbCircle
 10
353.0541907555944
 20
655.5685947667234
 30
0.0
 40
1.0
100
AcDbArc
 50
28.00539862627461
 51
76.42313109445203
  0
LINE
  5
54AD
330
18
100
AcDbEntity
  8
JISSEN
100
AcDbLine
 10
375.3527236908676
 20
615.7703618803652
 30
0.0
 11
353.9370941091365
 21
656.0381495221053
 31
0.0
  0
ARC
  5
54AE
330
18
100
AcDbEntity
  8
JISSEN
100
AcDbCircle
 10
519.9825080041655
 20
397.5685947667225
 30
0.0
 40
6.0
100
AcDbArc
 50
270.0
 51
350.0737544933469
  0
LINE
  5
54AF
330
18
100
AcDbEntity
  8
JISSEN
100
AcDbLine
 10
522.0236901554399
 20
574.0685947667225
 30
0.0
 11
494.7093625591578
 21
574.0685947667225
 31
0.0
  0
LINE
  5
54B0
330
18
100
AcDbEntity
  8
JISSEN
100
AcDbLine
 10
522.0236901554399
 20
559.0685947667225
 30
0.0
 11
497.6917577394579
 21
559.0685947667252
 31
0.0
  0
ARC
  5
54B1
330
18
100
AcDbEntity
  8
JISSEN
100
AcDbCircle
 10
433.2530011865146
 20
481.4870394394156
 30
0.0
 40
60.0
100
AcDbArc
 50
2.999999999999945
 51
45.2099090105132
  0
ARC
  5
54B2
330
18
100
AcDbEntity
  8
JISSEN
100
AcDbCircle
 10
-425.7222688712772
 20
384.5129381948327
 30
0.0
 40
940.0
100
AcDbArc
 50
2.564272581837883
 51
11.93829627561529
  0
ARC
  5
54B4
330
18
100
AcDbEntity
  8
JISSEN
100
AcDbCircle
 10
484.0236901554399
 20
484.5685947667225
 30
0.0
 40
4.0
100
AcDbArc
 50
359.9999999999934
 51
90.0
  0
LINE
  5
54B5
330
18
100
AcDbEntity
  8
JISSEN
100
AcDbLine
 10
478.9023870038372
 20
413.5685947667225
 30
0.0
 11
482.021760815649
 21
484.5685947667225
 31
0.0
  0
LINE
  5
54B6
330
18
100
AcDbEntity
  8
JISSEN
100
AcDbLine
 10
493.1707732717886
 20
484.6271968139917
 30
0.0
 11
496.8947968040429
 21
413.5685947667225
 31
0.0
  0
ARC
  5
54B9
330
18
100
AcDbEntity
  8
JISSEN
100
AcDbCircle
 10
505.5236901554398
 20
406.5685947667224
 30
0.0
 40
10.0
100
AcDbArc
 50
44.42700400080553
 51
135.5729959991945
  0
LINE
  5
54BE
330
18
100
AcDbEntity
  8
JISSEN
100
AcDbLine
 10
513.3364735672921
 20
426.5685947667207
 30
0.0
 11
514.4738261931297
 21
413.5685947667225
 31
0.0
  0
LINE
  5
54BF
330
18
100
AcDbEntity
  8
JISSEN
100
AcDbLine
 10
485.8992376707501
 20
586.7391058001503
 30
0.0
 11
475.5236901554399
 21
588.5685947667225
 31
0.0
  0
ARC
  5
54C0
330
18
100
AcDbEntity
  8
JISSEN
100
AcDbCircle
 10
485.5236901554362
 20
611.0748143265346
 30
0.0
 40
10.0
100
AcDbArc
 50
151.994601373664
 51
180.0000000000104
  0
LINE
  5
54C1
330
18
100
AcDbEntity
  8
JISSEN
100
AcDbLine
 10
476.5236901554398
 20
578.5685947667225
 30
0.0
 11
476.5236901554398
 21
534.0685947667225
 31
0.0
  0
LINE
  5
54C2
330
18
100
AcDbEntity
  8
JISSEN
100
AcDbLine
 10
475.5236901554399
 20
534.0685947667225
 30
0.0
 11
475.5236901554399
 21
524.0685947667225
 31
0.0
  0
LINE
  5
54C3
330
18
100
AcDbEntity
  8
JISSEN
100
AcDbLine
 10
475.5236901554399
 20
534.0685947667225
 30
0.0
 11
476.5236901554398
 21
534.0685947667225
 31
0.0
  0
LINE
  5
54C4
330
18
100
AcDbEntity
  8
JISSEN
100
AcDbLine
 10
475.5236901554399
 20
578.5685947667225
 30
0.0
 11
476.5236901554398
 21
578.5685947667225
 31
0.0
  0
LINE
  5
54C5
330
18
100
AcDbEntity
  8
JISSEN
100
AcDbLine
 10
475.5236901554399
 20
588.5685947667234
 30
0.0
 11
475.5236901554399
 21
578.5685947667225
 31
0.0
  0
LINE
  5
54C6
330
18
100
AcDbEntity
  8
JISSEN
100
AcDbLine
 10
475.5236901554399
 20
611.0748143265327
 30
0.0
 11
475.5236901554399
 21
519.5685947667225
 31
0.0
  0
ARC
  5
54C7
330
18
100
AcDbEntity
  8
JISSEN
100
AcDbCircle
 10
484.1627057588403
 20
576.8910371103556
 30
0.0
 40
10.0
100
AcDbArc
 50
11.93829627561919
 51
79.99999999999822
  0
LINE
  5
54C8
330
18
100
AcDbEntity
  8
JISSEN
100
AcDbLine
 10
476.6946566200122
 20
615.7703618803652
 30
0.0
 11
498.1102862017433
 21
656.0381495221053
 31
0.0
  0
ARC
  5
54C9
330
18
100
AcDbEntity
  8
JISSEN
100
AcDbCircle
 10
498.5236901554399
 20
657.5127064696726
 30
0.0
 40
1.0
100
AcDbArc
 50
283.576868905548
 51
0.0
  0
ARC
  5
54CA
330
18
100
AcDbEntity
  8
JISSEN
100
AcDbCircle
 10
498.9931895552854
 20
655.5685947667234
 30
0.0
 40
1.0
100
AcDbArc
 50
103.5768689055479
 51
151.9946013737254
  0
ARC
  5
54CB
330
18
100
AcDbEntity
  8
JISSEN
100
AcDbCircle
 10
568.0236901554398
 20
433.0117765849045
 30
0.0
 40
19.55681818181854
100
AcDbArc
 50
62.82743656725333
 51
120.7525024976525
  0
ARC
  5
54CC
330
18
100
AcDbEntity
  8
JISSEN
100
AcDbCircle
 10
568.0236901554398
 20
490.1254129485405
 30
0.0
 40
19.55681818181854
100
AcDbArc
 50
239.2474975023474
 51
297.1725634327466
  0
LINE
  5
54CD
330
18
100
AcDbEntity
  8
JISSEN
100
AcDbLine
 10
533.5236901554399
 20
413.5685947667225
 30
0.0
 11
533.5236901554399
 21
411.5685947667225
 31
0.0
  0
LINE
  5
54CE
330
18
100
AcDbEntity
  8
JISSEN
100
AcDbLine
 10
528.378856713497
 20
410.7409750984752
 30
0.0
 11
525.8926908070998
 21
396.5343127762089
 31
0.0
  0
ARC
  5
54CF
330
18
100
AcDbEntity
  8
JISSEN
100
AcDbCircle
 10
529.3638871806524
 20
410.5685947667224
 30
0.0
 40
1.0
100
AcDbArc
 50
90.00000000000003
 51
170.0737544933483
  0
LINE
  5
54D0
330
18
100
AcDbEntity
  8
JISSEN
100
AcDbLine
 10
536.0236901554399
 20
451.5685947667225
 30
0.0
 11
524.0236901554399
 21
451.5685947667225
 31
0.0
  0
LINE
  5
54D1
330
18
100
AcDbEntity
  8
JISSEN
100
AcDbLine
 10
524.0236901554399
 20
451.5685947667225
 30
0.0
 11
522.0236901554399
 21
453.5685947667225
 31
0.0
  0
LINE
  5
54D2
330
18
100
AcDbEntity
  8
JISSEN
100
AcDbLine
 10
546.0236901554399
 20
458.5685947667225
 30
0.0
 11
544.5236901554399
 21
458.5685947667225
 31
0.0
  0
LINE
  5
54D3
330
18
100
AcDbEntity
  8
JISSEN
100
AcDbLine
 10
546.0236901554399
 20
464.5685947667224
 30
0.0
 11
544.5236901554399
 21
464.5685947667224
 31
0.0
  0
LINE
  5
54D4
330
18
100
AcDbEntity
  8
JISSEN
100
AcDbLine
 10
546.0236901554399
 20
473.3185947667225
 30
0.0
 11
546.0236901554399
 21
449.8185947667225
 31
0.0
  0
LINE
  5
54D5
330
18
100
AcDbEntity
  8
JISSEN
100
AcDbLine
 10
538.0236901554399
 20
453.5685947667225
 30
0.0
 11
536.0236901554399
 21
451.5685947667225
 31
0.0
  0
INSERT
  5
54D6
330
18
100
AcDbEntity
  8
MODEL
100
AcDbBlockReference
  2
LNUT060000S
 10
538.0236901554399
 20
461.5685947667225
 30
0.0
 41
-1.0
  0
ARC
  5
54D7
330
18
100
AcDbEntity
  8
JISSEN
100
AcDbCircle
 10
552.0236901554398
 20
467.3685947667227
 30
0.0
 40
8.449999999999873
100
AcDbArc
 50
44.7602701039183
 51
135.2397298960816
  0
ARC
  5
54D8
330
18
100
AcDbEntity
  8
JISSEN
100
AcDbCircle
 10
552.0236901554398
 20
455.7685947667223
 30
0.0
 40
8.449999999999873
100
AcDbArc
 50
224.7602701039183
 51
315.2397298960817
  0
LINE
  5
54D9
330
18
100
AcDbEntity
  8
JISSEN
100
AcDbLine
 10
610.0236901554398
 20
476.6032429926799
 30
0.0
 11
610.0236901554398
 21
446.5339465407651
 31
0.0
  0
ARC
  5
54DA
330
18
100
AcDbEntity
  8
JISSEN
100
AcDbCircle
 10
609.3293874343516
 20
325.8483566714803
 30
0.0
 40
150.7564851208274
100
AcDbArc
 50
89.73612573801799
 51
101.3943420469649
  0
ARC
  5
54DB
330
18
100
AcDbEntity
  8
JISSEN
100
AcDbCircle
 10
609.3293874343516
 20
597.2888328619647
 30
0.0
 40
150.7564851208274
100
AcDbArc
 50
258.605657953035
 51
270.263874261982
  0
ARC
  5
54DC
330
18
100
AcDbEntity
  8
JISSEN
100
AcDbCircle
 10
581.5214605454757
 20
463.8306283795246
 30
0.0
 40
10.0
100
AcDbArc
 50
101.3943420469643
 51
117.172563432746
  0
ARC
  5
54DD
330
18
100
AcDbEntity
  8
JISSEN
100
AcDbCircle
 10
581.5214605454757
 20
459.3065611539205
 30
0.0
 40
10.0
100
AcDbArc
 50
242.8274365672539
 51
258.6056579530356
  0
LINE
  5
54DE
330
18
100
AcDbEntity
  8
JISSEN
100
AcDbLine
 10
473.0236901554398
 20
820.7449808018454
 30
0.0
 11
379.0236901554399
 21
820.7449808018454
 31
0.0
  0
LINE
  5
54DF
330
18
100
AcDbEntity
  8
JISSEN
100
AcDbLine
 10
379.0236901554399
 20
1024.744980801845
 30
0.0
 11
473.0236901554398
 21
1024.744980801845
 31
0.0
  0
LINE
  5
54E0
330
18
100
AcDbEntity
  8
JISSEN
100
AcDbLine
 10
473.0236901554398
 20
812.7449808018454
 30
0.0
 11
379.0236901554399
 21
812.7449808018454
 31
0.0
  0
LINE
  5
54E1
330
18
100
AcDbEntity
  8
JISSEN
100
AcDbLine
 10
379.0236901554399
 20
1032.744980801845
 30
0.0
 11
473.0236901554398
 21
1032.744980801845
 31
0.0
  0
LINE
  5
54E2
330
18
100
AcDbEntity
  8
JISSEN
100
AcDbLine
 10
529.5236901554399
 20
1052.744980801845
 30
0.0
 11
322.5236901554399
 21
1052.744980801845
 31
0.0
  0
LINE
  5
54E3
330
18
100
AcDbEntity
  8
JISSEN
100
AcDbLine
 10
522.8432961050157
 20
1046.064586751421
 30
0.0
 11
329.2040842058641
 21
1046.064586751421
 31
0.0
  0
LINE
  5
54E4
330
18
100
AcDbEntity
  8
JISSEN
100
AcDbLine
 10
519.3432961050148
 20
1042.564586751421
 30
0.0
 11
332.704084205865
 21
1042.564586751421
 31
0.0
  0
LINE
  5
54E5
330
18
100
AcDbEntity
  8
JISSEN
100
AcDbLine
 10
519.3432961050148
 20
802.9253748522705
 30
0.0
 11
361.0236901554408
 21
802.9253748522705
 31
0.0
  0
LINE
  5
54E6
330
18
100
AcDbEntity
  8
JISSEN
100
AcDbLine
 10
522.8432961050157
 20
799.4253748522705
 30
0.0
 11
329.2040842058641
 21
799.4253748522705
 31
0.0
  0
LINE
  5
54E7
330
18
100
AcDbEntity
  8
JISSEN
100
AcDbLine
 10
529.5236901554399
 20
792.7449808018455
 30
0.0
 11
322.5236901554399
 21
792.7449808018455
 31
0.0
  0
LINE
  5
54E8
330
18
100
AcDbEntity
  8
JISSEN
100
AcDbLine
 10
408.5367608920132
 20
919.2449808018455
 30
0.0
 11
443.5106194188665
 21
919.2449808018455
 31
0.0
  0
ARC
  5
54E9
330
18
100
AcDbEntity
  8
JISSEN
100
AcDbCircle
 10
426.0236901554399
 20
922.7449808018455
 30
0.0
 40
19.05665237705216
100
AcDbArc
 50
191.1766393023837
 51
348.8233606976162
  0
LINE
  5
54EA
330
18
100
AcDbEntity
  8
JISSEN
100
AcDbLine
 10
408.3094954217212
 20
920.2449808018455
 30
0.0
 11
443.7378848891585
 21
920.2449808018455
 31
0.0
  0
LINE
  5
54EB
330
18
100
AcDbEntity
  8
JISSEN
100
AcDbLine
 10
408.5367608920132
 20
926.2449808018455
 30
0.0
 11
443.5106194188665
 21
926.2449808018455
 31
0.0
  0
ARC
  5
54EC
330
18
100
AcDbEntity
  8
JISSEN
100
AcDbCircle
 10
426.0236901554399
 20
922.7449808018455
 30
0.0
 40
19.05665237705216
100
AcDbArc
 50
11.17663930238377
 51
168.8233606976162
  0
LINE
  5
54ED
330
18
100
AcDbEntity
  8
JISSEN
100
AcDbLine
 10
408.3094954217212
 20
925.2449808018454
 30
0.0
 11
443.7378848891585
 21
925.2449808018454
 31
0.0
  0
ARC
  5
54EE
330
18
100
AcDbEntity
  8
JISSEN
100
AcDbCircle
 10
426.0236901554399
 20
683.5685947667225
 30
0.0
 40
25.0
100
AcDbArc
 50
44.52131382998115
 51
135.4786861700188
  0
LINE
  5
54EF
330
18
100
AcDbEntity
  8
JISSEN
100
AcDbLine
 10
498.5236901554399
 20
691.5685947667225
 30
0.0
 11
353.5236901554408
 21
691.5685947667225
 31
0.0
  0
ARC
  5
54F0
330
18
100
AcDbEntity
  8
JISSEN
100
AcDbCircle
 10
426.0236901554399
 20
514.1767347528293
 30
0.0
 40
500.0
100
AcDbArc
 50
82.65683363708614
 51
97.34316636291381
  0
ARC
  5
54F1
330
18
100
AcDbEntity
  8
JISSEN
100
AcDbCircle
 10
426.0236901554399
 20
1331.313226850861
 30
0.0
 40
500.0
100
AcDbArc
 50
262.6568336370862
 51
277.3431663629137
  0
LINE
  5
54F2
330
18
100
AcDbEntity
  8
JISSEN
100
AcDbLine
 10
352.5236901554399
 20
691.5685947667225
 30
0.0
 11
499.5236901554399
 21
691.5685947667225
 31
0.0
  0
ARC
  5
54F3
330
18
100
AcDbEntity
  8
JISSEN
100
AcDbCircle
 10
426.0236901554399
 20
160.5685947667225
 30
0.0
 40
540.0
100
AcDbArc
 50
82.45615098935777
 51
97.54384901064224
  0
LINE
  5
54F4
330
18
100
AcDbEntity
  8
JISSEN
100
AcDbLine
 10
318.5236901554399
 20
796.7449808018455
 30
0.0
 11
318.5236901554399
 21
1048.744980801845
 31
0.0
  0
LINE
  5
54F5
330
18
100
AcDbEntity
  8
JISSEN
100
AcDbLine
 10
325.2040842058641
 20
803.4253748522706
 30
0.0
 11
325.2040842058641
 21
1042.064586751421
 31
0.0
  0
LINE
  5
54F6
330
18
100
AcDbEntity
  8
JISSEN
100
AcDbLine
 10
328.704084205865
 20
1038.564586751421
 30
0.0
 11
328.704084205865
 21
806.9253748522706
 31
0.0
  0
LINE
  5
54F7
330
18
100
AcDbEntity
  8
JISSEN
100
AcDbLine
 10
336.5236901554399
 20
827.7449808018454
 30
0.0
 11
336.5236901554408
 21
1017.744980801845
 31
0.0
  0
LINE
  5
54F8
330
18
100
AcDbEntity
  8
JISSEN
100
AcDbLine
 10
352.5236901554408
 20
999.1661676274025
 30
0.0
 11
352.5236901554399
 21
846.3237939762885
 31
0.0
  0
LINE
  5
54FE
330
18
100
AcDbEntity
  8
JISSEN
100
AcDbLine
 10
346.6531154198037
 20
913.1251832703828
 30
0.0
 11
341.2937482361485
 21
912.8443107379244
 31
0.0
  0
LINE
  5
54FF
330
18
100
AcDbEntity
  8
JISSEN
100
AcDbLine
 10
346.6531154198037
 20
932.3647783333081
 30
0.0
 11
341.2937482361485
 21
932.6456508657665
 31
0.0
  0
ARC
  5
5500
330
18
100
AcDbEntity
  8
JISSEN
100
AcDbCircle
 10
343.3984201486355
 20
941.9491225349847
 30
0.0
 40
4.0
100
AcDbArc
 50
93.0000000000048
 51
179.9999999999867
  0
ARC
  5
5501
330
18
100
AcDbEntity
  8
JISSEN
100
AcDbCircle
 10
343.3984201486364
 20
903.5408390687043
 30
0.0
 40
4.0
100
AcDbArc
 50
179.9999999999997
 51
266.9999999999907
  0
ARC
  5
5502
330
18
100
AcDbEntity
  8
JISSEN
100
AcDbCircle
 10
346.5236901554399
 20
827.7449808018454
 30
0.0
 40
10.0
100
AcDbArc
 50
179.9999999999997
 51
34.57373032359831
  0
ARC
  5
5503
330
18
100
AcDbEntity
  8
JISSEN
100
AcDbCircle
 10
332.704084205865
 20
806.9253748522706
 30
0.0
 40
4.0
100
AcDbArc
 50
180.000000000013
 51
253.7358755605089
  0
ARC
  5
5504
330
18
100
AcDbEntity
  8
JISSEN
100
AcDbCircle
 10
331.0236901554399
 20
801.1654897982706
 30
0.0
 40
2.0
100
AcDbArc
 50
11.05222907987808
 51
73.735875560534
  0
ARC
  5
5505
330
18
100
AcDbEntity
  8
JISSEN
100
AcDbCircle
 10
335.0152386968848
 20
801.4253748522705
 30
0.0
 40
2.0
100
AcDbArc
 50
176.5156082675097
 51
270.0
  0
ARC
  5
5506
330
18
100
AcDbEntity
  8
JISSEN
100
AcDbCircle
 10
322.5236901554408
 20
796.7449808018455
 30
0.0
 40
4.0
100
AcDbArc
 50
180.0000000000065
 51
269.999999999987
  0
LINE
  5
5507
330
18
100
AcDbEntity
  8
JISSEN
100
AcDbLine
 10
327.1721998395351
 20
801.6846620572588
 30
0.0
 11
329.2908391860419
 21
803.6728777976213
 31
0.0
  0
ARC
  5
5508
330
18
100
AcDbEntity
  8
JISSEN
100
AcDbCircle
 10
329.2040842058659
 20
803.4253748522706
 30
0.0
 40
4.0
100
AcDbArc
 50
180.0000000000032
 51
269.9999999999739
  0
LINE
  5
550E
330
18
100
AcDbEntity
  8
JISSEN
100
AcDbLine
 10
339.3984201486346
 20
910.8470516684155
 30
0.0
 11
339.3984201486346
 21
903.5408390687043
 31
0.0
  0
LINE
  5
550F
330
18
100
AcDbEntity
  8
JISSEN
100
AcDbLine
 10
339.3984201486346
 20
934.6429099352754
 30
0.0
 11
339.3984201486346
 21
941.9491225349865
 31
0.0
  0
ARC
  5
5510
330
18
100
AcDbEntity
  8
JISSEN
100
AcDbCircle
 10
341.3984201486346
 20
910.8470516684155
 30
0.0
 40
2.0
100
AcDbArc
 50
92.99999999999348
 51
180.0000000000257
  0
ARC
  5
5511
330
18
100
AcDbEntity
  8
JISSEN
100
AcDbCircle
 10
341.3984201486346
 20
934.6429099352754
 30
0.0
 40
2.0
100
AcDbArc
 50
179.9999999999736
 51
267.0000000000124
  0
ARC
  5
5512
330
18
100
AcDbEntity
  8
JISSEN
100
AcDbCircle
 10
363.5236901554399
 20
846.3237939762885
 30
0.0
 40
11.0
100
AcDbArc
 50
179.9999999999997
 51
262.6568336370874
  0
LINE
  5
5513
330
18
100
AcDbEntity
  8
JISSEN
100
AcDbLine
 10
364.0236901554398
 20
835.172117890921
 30
0.0
 11
364.0236901554398
 21
827.7449808018454
 31
0.0
  0
LINE
  5
5514
330
18
100
AcDbEntity
  8
JISSEN
100
AcDbLine
 10
372.0236901554399
 20
834.2377798611714
 30
0.0
 11
372.0236901554399
 21
827.7449808018454
 31
0.0
  0
ARC
  5
5515
330
18
100
AcDbEntity
  8
JISSEN
100
AcDbCircle
 10
379.0236901554399
 20
827.7449808018454
 30
0.0
 40
7.0
100
AcDbArc
 50
180.0
 51
270.0
  0
ARC
  5
5516
330
18
100
AcDbEntity
  8
JISSEN
100
AcDbCircle
 10
379.0236901554399
 20
827.7449808018454
 30
0.0
 40
15.0
100
AcDbArc
 50
180.0
 51
270.0
  0
ARC
  5
5517
330
18
100
AcDbEntity
  8
JISSEN
100
AcDbCircle
 10
361.0236901554408
 20
800.9253748522706
 30
0.0
 40
2.0
100
AcDbArc
 50
90.0
 51
180.0
  0
ARC
  5
5518
330
18
100
AcDbEntity
  8
JISSEN
100
AcDbCircle
 10
357.0550631888436
 20
801.4253748522705
 30
0.0
 40
2.0
100
AcDbArc
 50
270.0
 51
0.0
  0
ARC
  5
551E
330
18
100
AcDbEntity
  8
JISSEN
100
AcDbCircle
 10
353.5236901554408
 20
690.5685947667225
 30
0.0
 40
1.0
100
AcDbArc
 50
90.00000000002605
 51
180.0
  0
LINE
  5
551F
330
18
100
AcDbEntity
  8
JISSEN
100
AcDbLine
 10
352.5236901554399
 20
692.9206869012423
 30
0.0
 11
352.5236901554399
 21
691.5685947667225
 31
0.0
  0
ARC
  5
5520
330
18
100
AcDbEntity
  8
JISSEN
100
AcDbCircle
 10
355.5236901554398
 20
692.9206869012423
 30
0.0
 40
3.0
100
AcDbArc
 50
97.54384901064053
 51
180.0
  0
LINE
  5
5521
330
18
100
AcDbEntity
  8
JISSEN
100
AcDbLine
 10
354.7576564956262
 20
833.41964363841
 30
0.0
 11
354.8493031987945
 21
839.5595489388597
 31
0.0
  0
ARC
  5
5522
330
18
100
AcDbEntity
  8
JISSEN
100
AcDbCircle
 10
406.0599795631551
 20
703.2014819560154
 30
0.0
 40
3.0
100
AcDbArc
 50
272.1069874880612
 51
315.4786861700131
  0
LINE
  5
5523
330
18
100
AcDbEntity
  8
JISSEN
100
AcDbLine
 10
352.5236901554408
 20
899.0571145482981
 30
0.0
 11
343.1890763236633
 21
899.5463209296868
 31
0.0
  0
LINE
  5
5524
330
18
100
AcDbEntity
  8
JISSEN
100
AcDbLine
 10
352.5236901554408
 20
946.4328470553919
 30
0.0
 11
343.1890763236633
 21
945.9436406740042
 31
0.0
  0
ARC
  5
5525
330
18
100
AcDbEntity
  8
JISSEN
100
AcDbCircle
 10
346.5484435073176
 20
915.1224423398925
 30
0.0
 40
2.0
100
AcDbArc
 50
273.0000000000009
 51
359.9999999999997
  0
ARC
  5
5526
330
18
100
AcDbEntity
  8
JISSEN
100
AcDbCircle
 10
346.5484435073176
 20
930.3675192637983
 30
0.0
 40
2.0
100
AcDbArc
 50
359.9999999999997
 51
86.99999999999846
  0
LINE
  5
5527
330
18
100
AcDbEntity
  8
JISSEN
100
AcDbLine
 10
348.5484435073176
 20
915.1224423398925
 30
0.0
 11
348.5484435073176
 21
930.3675192637983
 31
0.0
  0
ARC
  5
5528
330
18
100
AcDbEntity
  8
JISSEN
100
AcDbCircle
 10
408.5367608920405
 20
927.2449808019018
 30
0.0
 40
1.0
100
AcDbArc
 50
165.5688979211301
 51
269.9999999984106
  0
ARC
  5
5529
330
18
100
AcDbEntity
  8
JISSEN
100
AcDbCircle
 10
408.3094954217504
 20
926.2449808019065
 30
0.0
 40
1.0
100
AcDbArc
 50
168.8233607013795
 51
269.9999999983585
  0
ARC
  5
552A
330
18
100
AcDbEntity
  8
JISSEN
100
AcDbCircle
 10
408.5367608920414
 20
918.2449808017873
 30
0.0
 40
1.0
100
AcDbArc
 50
90.00000000164147
 51
194.4311020787559
  0
ARC
  5
552B
330
18
100
AcDbEntity
  8
JISSEN
100
AcDbCircle
 10
408.3094954217504
 20
919.2449808017846
 30
0.0
 40
1.0
100
AcDbArc
 50
90.00000000166753
 51
191.1766392986153
  0
ARC
  5
552C
330
18
100
AcDbEntity
  8
JISSEN
100
AcDbCircle
 10
346.5236901554408
 20
1017.744980801845
 30
0.0
 40
10.0
100
AcDbArc
 50
325.4262696764011
 51
179.9999999999997
  0
ARC
  5
552D
330
18
100
AcDbEntity
  8
JISSEN
100
AcDbCircle
 10
322.5236901554399
 20
1048.744980801844
 30
0.0
 40
4.0
100
AcDbArc
 50
90.0
 51
179.9999999999902
  0
ARC
  5
552E
330
18
100
AcDbEntity
  8
JISSEN
100
AcDbCircle
 10
329.2040842058649
 20
1042.06458675142
 30
0.0
 40
4.0
100
AcDbArc
 50
90.00000000001303
 51
179.9999999999934
  0
LINE
  5
552F
330
18
100
AcDbEntity
  8
JISSEN
100
AcDbLine
 10
327.1721998395351
 20
1043.805299546433
 30
0.0
 11
329.2908391860419
 21
1041.81708380607
 31
0.0
  0
ARC
  5
5530
330
18
100
AcDbEntity
  8
JISSEN
100
AcDbCircle
 10
332.704084205865
 20
1038.56458675142
 30
0.0
 40
4.0
100
AcDbArc
 50
90.0
 51
179.9999999999902
  0
LINE
  5
5531
330
18
100
AcDbEntity
  8
JISSEN
100
AcDbLine
 10
364.0236901554398
 20
1017.744980801845
 30
0.0
 11
364.0236901554398
 21
1010.31784371277
 31
0.0
  0
LINE
  5
5532
330
18
100
AcDbEntity
  8
JISSEN
100
AcDbLine
 10
372.0236901554399
 20
1017.744980801845
 30
0.0
 11
372.0236901554399
 21
1011.252181742519
 31
0.0
  0
ARC
  5
5533
330
18
100
AcDbEntity
  8
JISSEN
100
AcDbCircle
 10
379.0236901554399
 20
1017.744980801845
 30
0.0
 40
7.0
100
AcDbArc
 50
90.0
 51
180.0
  0
ARC
  5
5534
330
18
100
AcDbEntity
  8
JISSEN
100
AcDbCircle
 10
379.0236901554399
 20
1017.744980801845
 30
0.0
 40
15.0
100
AcDbArc
 50
90.0
 51
180.0
  0
LINE
  5
5535
330
18
100
AcDbEntity
  8
JISSEN
100
AcDbLine
 10
354.757656495627
 20
1012.070317965281
 30
0.0
 11
354.8493031987945
 21
1005.930412664831
 31
0.0
  0
ARC
  5
5536
330
18
100
AcDbEntity
  8
JISSEN
100
AcDbCircle
 10
363.5236901554399
 20
999.1661676274016
 30
0.0
 40
11.0
100
AcDbArc
 50
97.34316636290907
 51
179.999999999995
  0
LINE
  5
5537
330
18
100
AcDbEntity
  8
JISSEN
100
AcDbLine
 10
533.5236901554399
 20
1048.744980801845
 30
0.0
 11
533.5236901554399
 21
1037.744980801845
 31
0.0
  0
LINE
  5
5538
330
18
100
AcDbEntity
  8
JISSEN
100
AcDbLine
 10
526.8432961050157
 20
1042.064586751421
 30
0.0
 11
526.8432961050157
 21
1037.744980801845
 31
0.0
  0
LINE
  5
5539
330
18
100
AcDbEntity
  8
JISSEN
100
AcDbLine
 10
523.3432961050148
 20
1038.564586751421
 30
0.0
 11
523.3432961050148
 21
1037.06458675142
 31
0.0
  0
LINE
  5
553A
330
18
100
AcDbEntity
  8
JISSEN
100
AcDbLine
 10
499.5236901554399
 20
999.1661676274025
 30
0.0
 11
499.5236901554399
 21
846.3237939762885
 31
0.0
  0
LINE
  5
553B
330
18
100
AcDbEntity
  8
JISSEN
100
AcDbLine
 10
538.0236901554399
 20
1035.744980801845
 30
0.0
 11
538.0236901554399
 21
809.7449808018454
 31
0.0
  0
LINE
  5
553C
330
18
100
AcDbEntity
  8
JISSEN
100
AcDbLine
 10
522.0236901554399
 20
1035.744980801845
 30
0.0
 11
522.0236901554399
 21
809.7449808018454
 31
0.0
  0
LINE
  5
553D
330
18
100
AcDbEntity
  8
JISSEN
100
AcDbLine
 10
536.0236901554399
 20
1037.744980801845
 30
0.0
 11
536.0236901554399
 21
807.7449808018455
 31
0.0
  0
LINE
  5
553E
330
18
100
AcDbEntity
  8
JISSEN
100
AcDbLine
 10
524.0236901554399
 20
807.7449808018455
 30
0.0
 11
524.0236901554399
 21
1037.744980801845
 31
0.0
  0
LINE
  5
553F
330
18
100
AcDbEntity
  8
JISSEN
100
AcDbLine
 10
515.5236901554399
 20
930.2449808018455
 30
0.0
 11
515.5236901554399
 21
1017.744980801845
 31
0.0
  0
ARC
  5
5540
330
18
100
AcDbEntity
  8
JISSEN
100
AcDbCircle
 10
519.3432961050139
 20
806.9253748522706
 30
0.0
 40
4.0
100
AcDbArc
 50
270.000000000013
 51
359.9999999999902
  0
LINE
  5
5541
330
18
100
AcDbEntity
  8
JISSEN
100
AcDbLine
 10
522.0236901554399
 20
930.2449808018455
 30
0.0
 11
503.5026942518316
 21
930.2449808018455
 31
0.0
  0
LINE
  5
5542
330
18
100
AcDbEntity
  8
JISSEN
100
AcDbLine
 10
522.0236901554399
 20
915.2449808018454
 30
0.0
 11
503.5026942518316
 21
915.2449808018454
 31
0.0
  0
ARC
  5
5543
330
18
100
AcDbEntity
  8
JISSEN
100
AcDbCircle
 10
488.5236901554399
 20
846.3237939762885
 30
0.0
 40
11.0
100
AcDbArc
 50
277.3431663629122
 51
0.0
  0
LINE
  5
5544
330
18
100
AcDbEntity
  8
JISSEN
100
AcDbLine
 10
515.5236901554399
 20
827.7449808018454
 30
0.0
 11
515.5236901554399
 21
915.2449808018454
 31
0.0
  0
ARC
  5
5545
330
18
100
AcDbEntity
  8
JISSEN
100
AcDbCircle
 10
473.0236901554398
 20
827.7449808018454
 30
0.0
 40
7.0
100
AcDbArc
 50
270.0000000000017
 51
0.0
  0
ARC
  5
5546
330
18
100
AcDbEntity
  8
JISSEN
100
AcDbCircle
 10
473.0236901554398
 20
827.7449808018454
 30
0.0
 40
15.0
100
AcDbArc
 50
270.0000000000017
 51
0.0
  0
ARC
  5
5547
330
18
100
AcDbEntity
  8
JISSEN
100
AcDbCircle
 10
445.9874007477256
 20
703.2014819560154
 30
0.0
 40
3.0
100
AcDbArc
 50
224.5213138299868
 51
267.8930125119474
  0
LINE
  5
5548
330
18
100
AcDbEntity
  8
JISSEN
100
AcDbLine
 10
488.0236901554399
 20
835.172117890921
 30
0.0
 11
488.0236901554399
 21
827.7449808018454
 31
0.0
  0
LINE
  5
5549
330
18
100
AcDbEntity
  8
JISSEN
100
AcDbLine
 10
480.0236901554399
 20
834.2377798611714
 30
0.0
 11
480.0236901554399
 21
827.7449808018454
 31
0.0
  0
ARC
  5
554A
330
18
100
AcDbEntity
  8
JISSEN
100
AcDbCircle
 10
498.5236901554389
 20
690.5685947667225
 30
0.0
 40
1.0
100
AcDbArc
 50
0.0
 51
89.99999999997395
  0
LINE
  5
554B
330
18
100
AcDbEntity
  8
JISSEN
100
AcDbLine
 10
499.5236901554399
 20
692.9206869012423
 30
0.0
 11
499.5236901554399
 21
691.5685947667225
 31
0.0
  0
ARC
  5
554C
330
18
100
AcDbEntity
  8
JISSEN
100
AcDbCircle
 10
496.5236901554399
 20
692.9206869012423
 30
0.0
 40
3.0
100
AcDbArc
 50
0.0
 51
82.45615098935948
  0
LINE
  5
554D
330
18
100
AcDbEntity
  8
JISSEN
100
AcDbLine
 10
497.2897238152536
 20
833.41964363841
 30
0.0
 11
497.1980771120852
 21
839.5595489388597
 31
0.0
  0
ARC
  5
554E
330
18
100
AcDbEntity
  8
JISSEN
100
AcDbCircle
 10
505.5236901554398
 20
827.7449808018454
 30
0.0
 40
10.0
100
AcDbArc
 50
145.4262696764013
 51
0.0
  0
ARC
  5
554F
330
18
100
AcDbEntity
  8
JISSEN
100
AcDbCircle
 10
443.5106194188383
 20
918.2449808017873
 30
0.0
 40
1.0
100
AcDbArc
 50
345.5688979212439
 51
89.99999999835853
  0
ARC
  5
5550
330
18
100
AcDbEntity
  8
JISSEN
100
AcDbCircle
 10
443.7378848891293
 20
919.2449808017855
 30
0.0
 40
1.0
100
AcDbArc
 50
348.8233607013284
 51
89.99999999835853
  0
ARC
  5
5551
330
18
100
AcDbEntity
  8
JISSEN
100
AcDbCircle
 10
443.5106194188392
 20
927.2449808019018
 30
0.0
 40
1.0
100
AcDbArc
 50
270.0000000015633
 51
14.43110207887636
  0
ARC
  5
5552
330
18
100
AcDbEntity
  8
JISSEN
100
AcDbCircle
 10
443.7378848891293
 20
926.2449808019065
 30
0.0
 40
1.0
100
AcDbArc
 50
270.0000000016675
 51
11.17663929861542
  0
ARC
  5
5553
330
18
100
AcDbEntity
  8
JISSEN
100
AcDbCircle
 10
508.6489601622442
 20
903.5408390687043
 30
0.0
 40
4.0
100
AcDbArc
 50
273.000000000009
 51
0.0
  0
ARC
  5
5554
330
18
100
AcDbEntity
  8
JISSEN
100
AcDbCircle
 10
508.6489601622452
 20
941.9491225349847
 30
0.0
 40
4.0
100
AcDbArc
 50
0.0000000000130276
 51
86.99999999999491
  0
ARC
  5
5555
330
18
100
AcDbEntity
  8
JISSEN
100
AcDbCircle
 10
510.6489601622452
 20
934.6429099352754
 30
0.0
 40
2.0
100
AcDbArc
 50
272.9999999999872
 51
0.0000000000260551
  0
ARC
  5
5556
330
18
100
AcDbEntity
  8
JISSEN
100
AcDbCircle
 10
510.6489601622452
 20
910.8470516684155
 30
0.0
 40
2.0
100
AcDbArc
 50
359.9999999999739
 51
87.00000000000622
  0
LINE
  5
5557
330
18
100
AcDbEntity
  8
JISSEN
100
AcDbLine
 10
512.6489601622451
 20
934.6429099352754
 30
0.0
 11
512.6489601622451
 21
941.9491225349865
 31
0.0
  0
LINE
  5
5558
330
18
100
AcDbEntity
  8
JISSEN
100
AcDbLine
 10
512.6489601622451
 20
910.8470516684155
 30
0.0
 11
512.6489601622451
 21
903.5408390687043
 31
0.0
  0
LINE
  5
5559
330
18
100
AcDbEntity
  8
JISSEN
100
AcDbLine
 10
505.3942648910769
 20
932.3647783333081
 30
0.0
 11
510.7536320747312
 21
932.6456508657665
 31
0.0
  0
LINE
  5
555A
330
18
100
AcDbEntity
  8
JISSEN
100
AcDbLine
 10
503.4989368035621
 20
915.1224423398925
 30
0.0
 11
503.4989368035621
 21
930.3675192637983
 31
0.0
  0
ARC
  5
555B
330
18
100
AcDbEntity
  8
JISSEN
100
AcDbCircle
 10
505.4989368035621
 20
930.3675192637983
 30
0.0
 40
2.0
100
AcDbArc
 50
93.00000000000125
 51
180.0
  0
LINE
  5
555C
330
18
100
AcDbEntity
  8
JISSEN
100
AcDbLine
 10
505.3942648910769
 20
913.1251832703828
 30
0.0
 11
510.7536320747312
 21
912.8443107379244
 31
0.0
  0
ARC
  5
555D
330
18
100
AcDbEntity
  8
JISSEN
100
AcDbCircle
 10
505.4989368035621
 20
915.1224423398925
 30
0.0
 40
2.0
100
AcDbArc
 50
180.0
 51
266.9999999999987
  0
LINE
  5
555E
330
18
100
AcDbEntity
  8
JISSEN
100
AcDbLine
 10
499.5236901554399
 20
946.4328470553919
 30
0.0
 11
508.8583039872173
 21
945.9436406740042
 31
0.0
  0
LINE
  5
555F
330
18
100
AcDbEntity
  8
JISSEN
100
AcDbLine
 10
499.5236901554399
 20
899.0571145482981
 30
0.0
 11
508.8583039872173
 21
899.5463209296868
 31
0.0
  0
LINE
  5
5560
330
18
100
AcDbEntity
  8
JISSEN
100
AcDbLine
 10
524.8751804713447
 20
801.6846620572588
 30
0.0
 11
522.7565411248378
 21
803.6728777976213
 31
0.0
  0
ARC
  5
5561
330
18
100
AcDbEntity
  8
JISSEN
100
AcDbCircle
 10
522.8432961050148
 20
803.4253748522706
 30
0.0
 40
4.0
100
AcDbArc
 50
270.000000000013
 51
359.9999999999869
  0
ARC
  5
5562
330
18
100
AcDbEntity
  8
JISSEN
100
AcDbCircle
 10
529.5236901554399
 20
796.7449808018472
 30
0.0
 40
4.0
100
AcDbArc
 50
270.0
 51
359.9999999999837
  0
LINE
  5
5563
330
18
100
AcDbEntity
  8
JISSEN
100
AcDbLine
 10
524.0236901554399
 20
681.5685947667225
 30
0.0
 11
536.0236901554399
 21
681.5685947667225
 31
0.0
  0
LINE
  5
5564
330
18
100
AcDbEntity
  8
JISSEN
100
AcDbLine
 10
524.0236901554399
 20
681.5685947667225
 30
0.0
 11
522.0236901554399
 21
679.5685947667225
 31
0.0
  0
LINE
  5
5565
330
18
100
AcDbEntity
  8
JISSEN
100
AcDbLine
 10
536.0236901554399
 20
681.5685947667225
 30
0.0
 11
538.0236901554399
 21
679.5685947667225
 31
0.0
  0
LINE
  5
5566
330
18
100
AcDbEntity
  8
JISSEN
100
AcDbLine
 10
538.0236901554399
 20
809.7449808018454
 30
0.0
 11
536.0236901554399
 21
807.7449808018455
 31
0.0
  0
LINE
  5
5567
330
18
100
AcDbEntity
  8
JISSEN
100
AcDbLine
 10
524.0236901554399
 20
807.7449808018455
 30
0.0
 11
522.0236901554399
 21
809.7449808018454
 31
0.0
  0
LINE
  5
5568
330
18
100
AcDbEntity
  8
JISSEN
100
AcDbLine
 10
536.0236901554399
 20
807.7449808018455
 30
0.0
 11
524.0236901554399
 21
807.7449808018455
 31
0.0
  0
ARC
  5
5569
330
18
100
AcDbEntity
  8
JISSEN
100
AcDbCircle
 10
568.0236901554398
 20
894.1881626200274
 30
0.0
 40
19.55681818181854
100
AcDbArc
 50
62.82743656725333
 51
120.7525024976525
  0
ARC
  5
556A
330
18
100
AcDbEntity
  8
JISSEN
100
AcDbCircle
 10
568.0236901554398
 20
951.3017989836635
 30
0.0
 40
19.55681818181854
100
AcDbArc
 50
239.2474975023474
 51
297.1725634327466
  0
INSERT
  5
556B
330
18
100
AcDbEntity
  8
MODEL
100
AcDbBlockReference
  2
LNUT060000S
 10
538.0236901554399
 20
922.7449808018455
 30
0.0
 41
-1.0
  0
LINE
  5
556C
330
18
100
AcDbEntity
  8
JISSEN
100
AcDbLine
 10
546.0236901554399
 20
934.4949808018455
 30
0.0
 11
546.0236901554399
 21
910.9949808018454
 31
0.0
  0
LINE
  5
556D
330
18
100
AcDbEntity
  8
JISSEN
100
AcDbLine
 10
546.0236901554399
 20
925.7449808018455
 30
0.0
 11
544.5236901554399
 21
925.7449808018455
 31
0.0
  0
LINE
  5
556E
330
18
100
AcDbEntity
  8
JISSEN
100
AcDbLine
 10
546.0236901554399
 20
919.7449808018454
 30
0.0
 11
544.5236901554399
 21
919.7449808018454
 31
0.0
  0
ARC
  5
556F
330
18
100
AcDbEntity
  8
JISSEN
100
AcDbCircle
 10
552.0236901554398
 20
916.9449808018454
 30
0.0
 40
8.449999999999873
100
AcDbArc
 50
224.7602701039183
 51
315.2397298960817
  0
ARC
  5
5570
330
18
100
AcDbEntity
  8
JISSEN
100
AcDbCircle
 10
552.0236901554398
 20
928.5449808018457
 30
0.0
 40
8.449999999999873
100
AcDbArc
 50
44.7602701039183
 51
135.2397298960816
  0
LINE
  5
5571
330
18
100
AcDbEntity
  8
JISSEN
100
AcDbLine
 10
610.0236901554398
 20
937.7796290278029
 30
0.0
 11
610.0236901554398
 21
907.710332575888
 31
0.0
  0
ARC
  5
5572
330
18
100
AcDbEntity
  8
JISSEN
100
AcDbCircle
 10
609.3293874343516
 20
1058.465218897087
 30
0.0
 40
150.7564851208274
100
AcDbArc
 50
258.605657953035
 51
270.263874261982
  0
ARC
  5
5573
330
18
100
AcDbEntity
  8
JISSEN
100
AcDbCircle
 10
609.3293874343516
 20
787.0247427066033
 30
0.0
 40
150.7564851208274
100
AcDbArc
 50
89.73612573801799
 51
101.3943420469649
  0
ARC
  5
5574
330
18
100
AcDbEntity
  8
JISSEN
100
AcDbCircle
 10
581.5214605454757
 20
920.4829471890434
 30
0.0
 40
10.0
100
AcDbArc
 50
242.8274365672539
 51
258.6056579530356
  0
ARC
  5
5575
330
18
100
AcDbEntity
  8
JISSEN
100
AcDbCircle
 10
581.5214605454757
 20
925.0070144146475
 30
0.0
 40
10.0
100
AcDbArc
 50
101.3943420469643
 51
117.172563432746
  0
ARC
  5
5576
330
18
100
AcDbEntity
  8
JISSEN
100
AcDbCircle
 10
519.3432961050139
 20
1038.56458675142
 30
0.0
 40
4.0
100
AcDbArc
 50
0.0000000000130296
 51
89.99999999998697
  0
ARC
  5
5577
330
18
100
AcDbEntity
  8
JISSEN
100
AcDbCircle
 10
473.0236901554398
 20
1017.744980801845
 30
0.0
 40
7.0
100
AcDbArc
 50
0.0
 51
90.0
  0
ARC
  5
5578
330
18
100
AcDbEntity
  8
JISSEN
100
AcDbCircle
 10
473.0236901554398
 20
1017.744980801845
 30
0.0
 40
15.0
100
AcDbArc
 50
0.0
 51
90.0
  0
LINE
  5
5579
330
18
100
AcDbEntity
  8
JISSEN
100
AcDbLine
 10
488.0236901554399
 20
1017.744980801845
 30
0.0
 11
488.0236901554399
 21
1010.31784371277
 31
0.0
  0
LINE
  5
557A
330
18
100
AcDbEntity
  8
JISSEN
100
AcDbLine
 10
480.0236901554399
 20
1017.744980801845
 30
0.0
 11
480.0236901554399
 21
1011.252181742519
 31
0.0
  0
ARC
  5
557B
330
18
100
AcDbEntity
  8
JISSEN
100
AcDbCircle
 10
488.5236901554407
 20
999.1661676274016
 30
0.0
 40
11.0
100
AcDbArc
 50
0.0000000000047373
 51
82.65683363709065
  0
LINE
  5
557C
330
18
100
AcDbEntity
  8
JISSEN
100
AcDbLine
 10
497.2897238152536
 20
1012.070317965281
 30
0.0
 11
497.1980771120852
 21
1005.930412664831
 31
0.0
  0
ARC
  5
557D
330
18
100
AcDbEntity
  8
JISSEN
100
AcDbCircle
 10
505.5236901554398
 20
1017.744980801845
 30
0.0
 40
10.0
100
AcDbArc
 50
0.0
 51
214.5737303235986
  0
LINE
  5
557E
330
18
100
AcDbEntity
  8
JISSEN
100
AcDbLine
 10
524.8751804713447
 20
1043.805299546433
 30
0.0
 11
522.7565411248378
 21
1041.81708380607
 31
0.0
  0
ARC
  5
557F
330
18
100
AcDbEntity
  8
JISSEN
100
AcDbCircle
 10
522.8432961050148
 20
1042.06458675142
 30
0.0
 40
4.0
100
AcDbArc
 50
0.0000000000130296
 51
89.99999999998697
  0
ARC
  5
5580
330
18
100
AcDbEntity
  8
JISSEN
100
AcDbCircle
 10
529.5236901554399
 20
1048.744980801844
 30
0.0
 40
4.0
100
AcDbArc
 50
0.0000000000097522
 51
90.0
  0
LINE
  5
5581
330
18
100
AcDbEntity
  8
JISSEN
100
AcDbLine
 10
536.0236901554399
 20
1037.744980801845
 30
0.0
 11
538.0236901554399
 21
1035.744980801845
 31
0.0
  0
LINE
  5
5582
330
18
100
AcDbEntity
  8
JISSEN
100
AcDbLine
 10
524.0236901554399
 20
1037.744980801845
 30
0.0
 11
522.0236901554399
 21
1035.744980801845
 31
0.0
  0
LINE
  5
5583
330
18
100
AcDbEntity
  8
JISSEN
100
AcDbLine
 10
524.0236901554399
 20
1037.744980801845
 30
0.0
 11
536.0236901554399
 21
1037.744980801845
 31
0.0
  0
ARC
  5
5584
330
18
100
AcDbEntity
  8
JISSEN
100
AcDbCircle
 10
887.6308180064098
 20
566.5685947667225
 30
0.0
 40
115.0
100
AcDbArc
 50
275.8257318122916
 51
264.1742681877083
  0
ARC
  5
5585
330
18
100
AcDbEntity
  8
JISSEN
100
AcDbCircle
 10
887.6308180064098
 20
566.5685947667225
 30
0.0
 40
113.0
100
AcDbArc
 50
276.6723956692807
 51
263.3276043307192
  0
ARC
  5
5586
330
18
100
AcDbEntity
  8
JISSEN
100
AcDbCircle
 10
887.6308180064098
 20
566.5685947667225
 30
0.0
 40
97.5
100
AcDbArc
 50
43.89935286554693
 51
136.1006471344529
  0
LINE
  5
5587
330
18
100
AcDbEntity
  8
ITTEN
100
AcDbLine
 10
887.6308180064098
 20
727.8210122462933
 30
0.0
 11
887.6308180064098
 21
374.6670265013344
 31
0.0
  0
LINE
  5
5588
330
18
100
AcDbEntity
  8
JISSEN
100
AcDbLine
 10
973.1233122759631
 20
656.5685947667225
 30
0.0
 11
973.1233122759631
 21
691.5685947667225
 31
0.0
  0
LINE
  5
5589
330
18
100
AcDbEntity
  8
JISSEN
100
AcDbLine
 10
978.555066226947
 20
654.5685947667225
 30
0.0
 11
978.555066226947
 21
691.5685947667225
 31
0.0
  0
LINE
  5
558A
330
18
100
AcDbEntity
  8
JISSEN
100
AcDbLine
 10
802.1383237368564
 20
656.5685947667225
 30
0.0
 11
802.1383237368564
 21
691.5685947667225
 31
0.0
  0
LINE
  5
558B
330
18
100
AcDbEntity
  8
JISSEN
100
AcDbLine
 10
796.7065697858725
 20
654.5685947667225
 30
0.0
 11
796.7065697858725
 21
691.5685947667225
 31
0.0
  0
LINE
  5
558D
330
18
100
AcDbEntity
  8
JISSEN
100
AcDbLine
 10
997.6308180064098
 20
484.5685947667225
 30
0.0
 11
968.2595969876146
 21
484.5685947667225
 31
0.0
  0
LINE
  5
558E
330
18
100
AcDbEntity
  8
JISSEN
100
AcDbLine
 10
993.6308180064097
 20
488.5685947667225
 30
0.0
 11
972.135255759702
 21
488.5685947667226
 31
0.0
  0
LINE
  5
558F
330
18
100
AcDbEntity
  8
JISSEN
100
AcDbLine
 10
762.7756514483526
 20
391.5685947667225
 30
0.0
 11
1004.089635855135
 21
391.5685947667225
 31
0.0
  0
LINE
  5
5592
330
18
100
AcDbEntity
  8
JISSEN
100
AcDbLine
 10
973.1233122759631
 20
656.5685947667225
 30
0.0
 11
959.2199233227916
 21
656.5685947667225
 31
0.0
  0
LINE
  5
5593
330
18
100
AcDbEntity
  8
JISSEN
100
AcDbLine
 10
967.9032313659313
 20
617.5326963818606
 30
0.0
 11
971.9032313659313
 21
610.6044931515843
 31
0.0
  0
LINE
  5
5594
330
18
100
AcDbEntity
  8
JISSEN
100
AcDbLine
 10
970.8051551545782
 20
606.5064169402303
 30
0.0
 11
906.7192752745295
 21
569.5064169402312
 31
0.0
  0
LINE
  5
5595
330
18
100
AcDbEntity
  8
JISSEN
100
AcDbLine
 10
973.8530037138398
 20
596.4614444532316
 30
0.0
 11
912.9340311699152
 21
558.3950455607273
 31
0.0
  0
ARC
  5
5596
330
18
100
AcDbEntity
  8
JISSEN
100
AcDbCircle
 10
887.6308180064098
 20
566.5685947667225
 30
0.0
 40
97.5
100
AcDbArc
 50
283.8993528655472
 51
16.10064713445301
  0
LINE
  5
5597
330
18
100
AcDbEntity
  8
JISSEN
100
AcDbLine
 10
975.9540623818347
 20
413.5685947667225
 30
0.0
 11
927.608734189525
 21
421.573618310409
 31
0.0
  0
LINE
  5
5598
330
18
100
AcDbEntity
  8
JISSEN
100
AcDbLine
 10
927.8473559872246
 20
420.0197502828814
 30
0.0
 11
973.7497126212902
 21
413.5685947667225
 31
0.0
  0
LINE
  5
559A
330
18
100
AcDbEntity
  8
JISSEN
100
AcDbLine
 10
830.1002503654048
 20
418.6672487928497
 30
0.0
 11
784.0703715509607
 21
484.5685947667225
 31
0.0
  0
ARC
  5
559B
330
18
100
AcDbEntity
  8
JISSEN
100
AcDbCircle
 10
887.6308180064098
 20
566.5685947667225
 30
0.0
 40
97.5
100
AcDbArc
 50
163.8993528655469
 51
256.1006471344529
  0
LINE
  5
559D
330
18
100
AcDbEntity
  8
JISSEN
100
AcDbLine
 10
847.4142800255949
 20
420.0197502828814
 30
0.0
 11
801.511923391528
 21
413.5685947667225
 31
0.0
  0
LINE
  5
559E
330
18
100
AcDbEntity
  8
JISSEN
100
AcDbLine
 10
799.3075736309847
 20
413.5685947667225
 30
0.0
 11
847.6529018232945
 21
421.573618310409
 31
0.0
  0
ARC
  5
559F
330
18
100
AcDbEntity
  8
JISSEN
100
AcDbCircle
 10
621.5236901554399
 20
476.1033132201809
 30
0.0
 40
1.504931786076144
100
AcDbArc
 50
175.3601919865082
 51
355.3601919865254
  0
ARC
  5
55A0
330
18
100
AcDbEntity
  8
JISSEN
100
AcDbCircle
 10
621.5236901554399
 20
447.033876313264
 30
0.0
 40
1.504931786076144
100
AcDbArc
 50
4.639808013474561
 51
184.6398080134918
  0
LINE
  5
55A1
330
18
100
AcDbEntity
  8
JISSEN
100
AcDbLine
 10
613.0236901554399
 20
476.5595703663857
 30
0.0
 11
613.0236901554399
 21
446.5776191670593
 31
0.0
  0
LINE
  5
55A2
330
18
100
AcDbEntity
  8
JISSEN
100
AcDbLine
 10
620.0236901554399
 20
476.2250493312676
 30
0.0
 11
620.0236901554399
 21
446.9121402021774
 31
0.0
  0
ARC
  5
55A3
330
18
100
AcDbEntity
  8
JISSEN
100
AcDbCircle
 10
609.3293874343516
 20
325.8483566714803
 30
0.0
 40
150.7564851208274
100
AcDbArc
 50
85.93215857144112
 51
88.5958206431348
  0
ARC
  5
55A4
330
18
100
AcDbEntity
  8
JISSEN
100
AcDbCircle
 10
609.3293874343516
 20
597.2888328619647
 30
0.0
 40
150.7564851208274
100
AcDbArc
 50
271.4041793568652
 51
274.0678414285588
  0
ARC
  5
55A5
330
18
100
AcDbEntity
  8
JISSEN
100
AcDbCircle
 10
609.3293874343516
 20
325.8483566714803
 30
0.0
 40
150.7564851208274
100
AcDbArc
 50
80.57231844476019
 51
84.7882254015912
  0
ARC
  5
55A6
330
18
100
AcDbEntity
  8
JISSEN
100
AcDbCircle
 10
609.3293874343516
 20
597.2888328619647
 30
0.0
 40
150.7564851208274
100
AcDbArc
 50
275.2117745984087
 51
279.4276815552398
  0
LINE
  5
55A7
330
18
100
AcDbEntity
  8
JISSEN
100
AcDbLine
 10
634.0236901554399
 20
474.5685947667225
 30
0.0
 11
634.0236901554399
 21
448.5685947667225
 31
0.0
  0
LINE
  5
55A8
330
18
100
AcDbEntity
  8
JISSEN
100
AcDbLine
 10
623.0236901554398
 20
475.9815771090952
 30
0.0
 11
623.0236901554398
 21
447.1556124243497
 31
0.0
  0
ARC
  5
55AC
330
18
100
AcDbEntity
  8
JISSEN
100
AcDbCircle
 10
781.6308180064098
 20
484.5685947667225
 30
0.0
 40
4.0
100
AcDbArc
 50
90.0
 51
180.0
  0
ARC
  5
55AD
330
18
100
AcDbEntity
  8
JISSEN
100
AcDbCircle
 10
771.1720001576837
 20
397.5685947667225
 30
0.0
 40
6.0
100
AcDbArc
 50
189.9262455066526
 51
270.0
  0
ARC
  5
55AE
330
18
100
AcDbEntity
  8
JISSEN
100
AcDbCircle
 10
761.7906209811971
 20
410.5685947667224
 30
0.0
 40
1.0
100
AcDbArc
 50
9.92624550665171
 51
90.0
  0
LINE
  5
55AF
330
18
100
AcDbEntity
  8
JISSEN
100
AcDbLine
 10
762.7756514483526
 20
410.7409750984743
 30
0.0
 11
765.2618173547494
 21
396.5343127762089
 31
0.0
  0
LINE
  5
55BB
330
18
100
AcDbEntity
  8
JISSEN
100
AcDbLine
 10
757.6308180064097
 20
411.5685947667225
 30
0.0
 11
757.6308180064097
 21
413.5685947667225
 31
0.0
  0
LINE
  5
55C0
330
18
100
AcDbEntity
  8
JISSEN
100
AcDbLine
 10
925.1308180064098
 20
656.5685947667225
 30
0.0
 11
850.1308180064096
 21
656.5685947667225
 31
0.0
  0
LINE
  5
55C1
330
18
100
AcDbEntity
  8
JISSEN
100
AcDbLine
 10
818.6317579326683
 20
626.2927731159216
 30
0.0
 11
882.0577126759372
 21
592.5685947667916
 31
0.0
  0
CIRCLE
  5
55C2
330
18
100
AcDbEntity
  8
JISSEN
100
AcDbCircle
 10
887.6308180064098
 20
461.5685947667225
 30
0.0
 40
14.99097559964866
  0
CIRCLE
  5
55C3
330
18
100
AcDbEntity
  8
JISSEN
100
AcDbCircle
 10
887.6308180064098
 20
461.5685947667225
 30
0.0
 40
13.0
  0
CIRCLE
  5
55C4
330
18
100
AcDbEntity
  8
JISSEN
100
AcDbCircle
 10
887.6308180064098
 20
461.5685947667225
 30
0.0
 40
8.0
  0
ARC
  5
55C5
330
18
100
AcDbEntity
  8
JISSEN
100
AcDbCircle
 10
880.6308180064098
 20
429.5685947667225
 30
0.0
 40
3.0
100
AcDbArc
 50
180.0
 51
270.0
  0
LINE
  5
55C6
330
18
100
AcDbEntity
  8
JISSEN
100
AcDbLine
 10
863.1308180064097
 20
472.1969888674903
 30
0.0
 11
863.1308180064097
 21
557.0038395521587
 31
0.0
  0
LINE
  5
55C7
330
18
100
AcDbEntity
  8
JISSEN
100
AcDbLine
 10
864.6308180064098
 20
471.8382713742403
 30
0.0
 11
864.6308180064098
 21
554.4057633408056
 31
0.0
  0
LINE
  5
55C8
330
18
100
AcDbEntity
  8
JISSEN
100
AcDbLine
 10
870.4076923727216
 20
476.9515667310152
 30
0.0
 11
867.9007101731835
 21
548.7421439727349
 31
0.0
  0
LINE
  5
55CB
330
18
100
AcDbEntity
  8
JISSEN
100
AcDbLine
 10
877.6308180064097
 20
429.5685947667225
 30
0.0
 11
877.6308180064097
 21
450.4003652996462
 31
0.0
  0
LINE
  5
55CC
330
18
100
AcDbEntity
  8
JISSEN
100
AcDbLine
 10
864.6308180064098
 20
439.8251116576321
 30
0.0
 11
864.6308180064098
 21
453.8920665986961
 31
0.0
  0
LINE
  5
55CD
330
18
100
AcDbEntity
  8
JISSEN
100
AcDbLine
 10
863.1308180064097
 20
439.8251116576321
 30
0.0
 11
863.1308180064097
 21
454.2086819864071
 31
0.0
  0
ARC
  5
55CE
330
18
100
AcDbEntity
  8
JISSEN
100
AcDbCircle
 10
865.410738237626
 20
476.7770692475023
 30
0.0
 40
5.0
100
AcDbArc
 50
256.1006471344524
 51
2.000000000003589
  0
ARC
  5
55CF
330
18
100
AcDbEntity
  8
JISSEN
100
AcDbCircle
 10
844.6308180064097
 20
439.8251116576321
 30
0.0
 40
20.0
100
AcDbArc
 50
277.9999999999869
 51
0.0
  0
ARC
  5
55D0
330
18
100
AcDbEntity
  8
JISSEN
100
AcDbCircle
 10
844.6308180064097
 20
439.8251116576321
 30
0.0
 40
18.5
100
AcDbArc
 50
277.9999999999869
 51
0.0
  0
LINE
  5
55D1
330
18
100
AcDbEntity
  8
JISSEN
100
AcDbLine
 10
839.865315118379
 20
519.5685947667215
 30
0.0
 11
818.74667353733
 21
585.6274338612466
 31
0.0
  0
LINE
  5
55D2
330
18
100
AcDbEntity
  8
JISSEN
100
AcDbLine
 10
841.9858116238083
 20
519.5685947667225
 30
0.0
 11
823.6662144756447
 21
582.5533635034307
 31
0.0
  0
LINE
  5
55D3
330
18
100
AcDbEntity
  8
JISSEN
100
AcDbLine
 10
811.4564808582413
 20
618.6307725932138
 30
0.0
 11
875.5423607382899
 21
581.6307725932138
 31
0.0
  0
LINE
  5
55D4
330
18
100
AcDbEntity
  8
JISSEN
100
AcDbLine
 10
804.4564808582412
 20
606.5064169402321
 30
0.0
 11
868.5423607382899
 21
569.5064169402321
 31
0.0
  0
LINE
  5
55D5
330
18
100
AcDbEntity
  8
JISSEN
100
AcDbLine
 10
801.40863229898
 20
596.4614444532316
 30
0.0
 11
862.3276048429024
 21
558.3950455607282
 31
0.0
  0
LINE
  5
55D6
330
18
100
AcDbEntity
  8
JISSEN
100
AcDbLine
 10
800.7519080010588
 20
641.9148288881578
 30
0.0
 11
796.7065697858725
 21
654.5685947667225
 31
0.0
  0
LINE
  5
55D7
330
18
100
AcDbEntity
  8
JISSEN
100
AcDbLine
 10
805.040054757841
 20
646.5921277180914
 30
0.0
 11
802.1383237368564
 21
656.5685947667225
 31
0.0
  0
LINE
  5
55D8
330
18
100
AcDbEntity
  8
JISSEN
100
AcDbLine
 10
816.0417126900279
 20
656.5685947667225
 30
0.0
 11
802.1383237368572
 21
656.5685947667225
 31
0.0
  0
ARC
  5
55D9
330
18
100
AcDbEntity
  8
JISSEN
100
AcDbCircle
 10
809.9564808582423
 20
616.0326963818606
 30
0.0
 40
3.0
100
AcDbArc
 50
60.00000000000866
 51
149.9999999999999
  0
LINE
  5
55DA
330
18
100
AcDbEntity
  8
JISSEN
100
AcDbLine
 10
803.3584046468881
 20
610.6044931515843
 30
0.0
 11
807.3584046468882
 21
617.5326963818606
 31
0.0
  0
ARC
  5
55DB
330
18
100
AcDbEntity
  8
JISSEN
100
AcDbCircle
 10
805.9564808582418
 20
609.1044931515844
 30
0.0
 40
3.0
100
AcDbArc
 50
149.9999999999956
 51
239.9999999999999
  0
ARC
  5
55DC
330
18
100
AcDbEntity
  8
JISSEN
100
AcDbCircle
 10
820.9791157465978
 20
630.7075110802161
 30
0.0
 40
5.0
100
AcDbArc
 50
136.100647134454
 51
241.9999999999975
  0
ARC
  5
55DD
330
18
100
AcDbEntity
  8
JISSEN
100
AcDbCircle
 10
798.7590359778141
 20
592.2212039724491
 30
0.0
 40
5.0
100
AcDbArc
 50
57.99999999999858
 51
163.8993528655491
  0
LINE
  5
55DE
330
18
100
AcDbEntity
  8
JISSEN
100
AcDbLine
 10
796.7065697858725
 20
654.5685947667225
 30
0.0
 11
802.1383237368572
 21
656.5685947667225
 31
0.0
  0
LINE
  5
55DF
330
18
100
AcDbEntity
  8
JISSEN
100
AcDbLine
 10
863.1308180064097
 20
519.5685947667215
 30
0.0
 11
839.865315118379
 21
519.5685947667215
 31
0.0
  0
LINE
  5
55E0
330
18
100
AcDbEntity
  8
JISSEN
100
AcDbLine
 10
867.9007101732686
 20
548.7421439725348
 30
0.0
 11
862.3276048427582
 21
558.3950455609119
 31
0.0
  0
ARC
  5
55E1
330
18
100
AcDbEntity
  8
JISSEN
100
AcDbCircle
 10
870.04236073829
 20
572.1044931515852
 30
0.0
 40
3.0
100
AcDbArc
 50
240.0000000000086
 51
329.9999999999956
  0
LINE
  5
55E2
330
18
100
AcDbEntity
  8
JISSEN
100
AcDbLine
 10
876.6404369496431
 20
577.5326963818606
 30
0.0
 11
872.6404369496432
 21
570.6044931515844
 31
0.0
  0
ARC
  5
55E3
330
18
100
AcDbEntity
  8
JISSEN
100
AcDbCircle
 10
874.0423607382899
 20
579.0326963818606
 30
0.0
 40
3.0
100
AcDbArc
 50
330.0000000000086
 51
59.9999999999913
  0
LINE
  5
55E4
330
18
100
AcDbEntity
  8
JISSEN
100
AcDbLine
 10
910.6308180064097
 20
471.8382713742403
 30
0.0
 11
910.6308180064097
 21
554.4057633408056
 31
0.0
  0
LINE
  5
55E5
330
18
100
AcDbEntity
  8
JISSEN
100
AcDbLine
 10
912.1308180064097
 20
472.1969888674903
 30
0.0
 11
912.1308180064097
 21
557.0038395521587
 31
0.0
  0
LINE
  5
55E6
330
18
100
AcDbEntity
  8
JISSEN
100
AcDbLine
 10
894.6308180064097
 20
474.5685947667225
 30
0.0
 11
894.6308180064097
 21
548.5685947667225
 31
0.0
  0
LINE
  5
55E7
330
18
100
AcDbEntity
  8
JISSEN
100
AcDbLine
 10
880.6308180064098
 20
474.5685947667225
 30
0.0
 11
880.6308180064098
 21
548.5685947667225
 31
0.0
  0
LINE
  5
55E8
330
18
100
AcDbEntity
  8
JISSEN
100
AcDbLine
 10
904.8539436400979
 20
476.9515667310152
 30
0.0
 11
907.3609258396359
 21
548.7421439727349
 31
0.0
  0
ARC
  5
55E9
330
18
100
AcDbEntity
  8
JISSEN
100
AcDbCircle
 10
930.6308180064098
 20
439.8251116576321
 30
0.0
 40
18.5
100
AcDbArc
 50
180.0
 51
262.000000000013
  0
ARC
  5
55EA
330
18
100
AcDbEntity
  8
JISSEN
100
AcDbCircle
 10
930.6308180064098
 20
439.8251116576321
 30
0.0
 40
20.0
100
AcDbArc
 50
180.0
 51
262.000000000013
  0
LINE
  5
55EB
330
18
100
AcDbEntity
  8
JISSEN
100
AcDbLine
 10
897.6308180064098
 20
429.5685947667225
 30
0.0
 11
897.6308180064098
 21
450.4003652996462
 31
0.0
  0
LINE
  5
55EC
330
18
100
AcDbEntity
  8
JISSEN
100
AcDbLine
 10
910.6308180064097
 20
439.8251116576321
 30
0.0
 11
910.6308180064097
 21
453.8920665986961
 31
0.0
  0
LINE
  5
55ED
330
18
100
AcDbEntity
  8
JISSEN
100
AcDbLine
 10
912.1308180064097
 20
439.8251116576321
 30
0.0
 11
912.1308180064097
 21
454.2086819864071
 31
0.0
  0
ARC
  5
55EE
330
18
100
AcDbEntity
  8
JISSEN
100
AcDbCircle
 10
909.850897775194
 20
476.7770692475023
 30
0.0
 40
5.0
100
AcDbArc
 50
177.9999999999965
 51
283.8993528655476
  0
INSERT
  5
55EF
330
18
100
AcDbEntity
  8
MODEL
100
AcDbBlockReference
  2
NUT060T
 10
887.6308180064098
 20
461.5685947667225
 30
0.0
  0
ARC
  5
55F0
330
18
100
AcDbEntity
  8
JISSEN
100
AcDbCircle
 10
894.6308180064097
 20
429.5685947667225
 30
0.0
 40
3.0
100
AcDbArc
 50
270.0000000000043
 51
0.0
  0
LINE
  5
55F1
330
18
100
AcDbEntity
  8
JISSEN
100
AcDbLine
 10
880.6308180064098
 20
426.5685947667225
 30
0.0
 11
894.6308180064097
 21
426.5685947667225
 31
0.0
  0
LINE
  5
55F2
330
18
100
AcDbEntity
  8
JISSEN
100
AcDbLine
 10
935.3963208944405
 20
519.5685947667225
 30
0.0
 11
912.1308180064097
 21
519.5685947667225
 31
0.0
  0
LINE
  5
55F3
330
18
100
AcDbEntity
  8
JISSEN
100
AcDbLine
 10
956.6298780801517
 20
626.2927731159216
 30
0.0
 11
893.2039233368842
 21
592.5685947667916
 31
0.0
  0
LINE
  5
55F4
330
18
100
AcDbEntity
  8
JISSEN
100
AcDbLine
 10
963.8051551545782
 20
618.6307725932128
 30
0.0
 11
899.7192752745295
 21
581.6307725932128
 31
0.0
  0
ARC
  5
55F5
330
18
100
AcDbEntity
  8
JISSEN
100
AcDbCircle
 10
901.2192752745308
 20
579.0326963818606
 30
0.0
 40
3.0
100
AcDbArc
 50
120.0000000000086
 51
209.9999999999956
  0
ARC
  5
55F6
330
18
100
AcDbEntity
  8
JISSEN
100
AcDbCircle
 10
891.6308180064097
 20
548.5685947667225
 30
0.0
 40
3.0
100
AcDbArc
 50
0.000000000008685
 51
89.99999999999566
  0
LINE
  5
55F7
330
18
100
AcDbEntity
  8
JISSEN
100
AcDbLine
 10
902.6211990631763
 20
570.6044931515844
 30
0.0
 11
898.6211990631764
 21
577.5326963818606
 31
0.0
  0
LINE
  5
55F8
330
18
100
AcDbEntity
  8
JISSEN
100
AcDbLine
 10
912.9340311700598
 20
558.3950455609101
 30
0.0
 11
907.3609258395499
 21
548.7421439725331
 31
0.0
  0
ARC
  5
55F9
330
18
100
AcDbEntity
  8
JISSEN
100
AcDbCircle
 10
905.2192752745304
 20
572.1044931515861
 30
0.0
 40
3.0
100
AcDbArc
 50
210.0000000000087
 51
299.9999999999912
  0
ARC
  5
55FA
330
18
100
AcDbEntity
  8
JISSEN
100
AcDbCircle
 10
883.6308180064103
 20
548.5685947667225
 30
0.0
 40
3.0
100
AcDbArc
 50
90.00000000000868
 51
179.9999999999913
  0
LINE
  5
55FB
330
18
100
AcDbEntity
  8
JISSEN
100
AcDbLine
 10
883.6308180064097
 20
551.5685947667225
 30
0.0
 11
891.6308180064097
 21
551.5685947667225
 31
0.0
  0
LINE
  5
55FC
330
18
100
AcDbEntity
  8
JISSEN
100
AcDbLine
 10
882.0577126758999
 20
592.5685947667225
 30
0.0
 11
893.2039233369209
 21
592.5685947667225
 31
0.0
  0
CIRCLE
  5
55FD
330
18
100
AcDbEntity
  8
JISSEN
100
AcDbCircle
 10
887.6308180064098
 20
566.5685947667225
 30
0.0
 40
7.0
  0
CIRCLE
  5
55FE
330
18
100
AcDbEntity
  8
JISSEN
100
AcDbCircle
 10
887.6308180064098
 20
566.5685947667225
 30
0.0
 40
6.0
  0
LINE
  5
55FF
330
18
100
AcDbEntity
  8
JISSEN
100
AcDbLine
 10
935.3963208944405
 20
519.5685947667225
 30
0.0
 11
956.5149624754894
 21
585.6274338612466
 31
0.0
  0
LINE
  5
5600
330
18
100
AcDbEntity
  8
JISSEN
100
AcDbLine
 10
933.2758243890111
 20
519.5685947667225
 30
0.0
 11
951.5954215371753
 21
582.5533635034307
 31
0.0
  0
ARC
  5
5601
330
18
100
AcDbEntity
  8
JISSEN
100
AcDbCircle
 10
965.3051551545786
 20
616.0326963818606
 30
0.0
 40
3.0
100
AcDbArc
 50
29.99999999999566
 51
119.9999999999999
  0
ARC
  5
5602
330
18
100
AcDbEntity
  8
JISSEN
100
AcDbCircle
 10
954.2825202662216
 20
630.7075110802161
 30
0.0
 40
5.0
100
AcDbArc
 50
298.0000000000048
 51
43.89935286554599
  0
LINE
  5
5604
330
18
100
AcDbEntity
  8
JISSEN
100
AcDbLine
 10
988.509514854808
 20
413.5685947667225
 30
0.0
 11
991.6288886666189
 21
484.5685947667225
 31
0.0
  0
ARC
  5
5605
330
18
100
AcDbEntity
  8
JISSEN
100
AcDbCircle
 10
993.6308180064097
 20
484.5685947667225
 30
0.0
 40
4.0
100
AcDbArc
 50
359.9999999999934
 51
90.0
  0
ARC
  5
5606
330
18
100
AcDbEntity
  8
JISSEN
100
AcDbCircle
 10
1004.089635855135
 20
397.5685947667225
 30
0.0
 40
6.0
100
AcDbArc
 50
270.0
 51
350.0737544933473
  0
LINE
  5
5607
330
18
100
AcDbEntity
  8
JISSEN
100
AcDbLine
 10
1012.485984564466
 20
410.7409750984743
 30
0.0
 11
1009.99981865807
 21
396.5343127762089
 31
0.0
  0
ARC
  5
5608
330
18
100
AcDbEntity
  8
JISSEN
100
AcDbCircle
 10
1013.471015031622
 20
410.5685947667224
 30
0.0
 40
1.0
100
AcDbArc
 50
90.0
 51
170.0737544933483
  0
LINE
  5
560F
330
18
100
AcDbEntity
  8
JISSEN
100
AcDbLine
 10
1017.630818006409
 20
411.5685947667225
 30
0.0
 11
1017.630818006409
 21
413.5685947667225
 31
0.0
  0
LINE
  5
5610
330
18
100
AcDbEntity
  8
JISSEN
100
AcDbLine
 10
974.5097280117615
 20
641.9148288881578
 30
0.0
 11
978.555066226947
 21
654.5685947667225
 31
0.0
  0
LINE
  5
5611
330
18
100
AcDbEntity
  8
JISSEN
100
AcDbLine
 10
970.2215812549784
 20
646.5921277180914
 30
0.0
 11
973.1233122759631
 21
656.5685947667225
 31
0.0
  0
ARC
  5
5612
330
18
100
AcDbEntity
  8
JISSEN
100
AcDbCircle
 10
976.5026000350053
 20
592.2212039724491
 30
0.0
 40
5.0
100
AcDbArc
 50
16.1006471344509
 51
121.9999999999969
  0
ARC
  5
5613
330
18
100
AcDbEntity
  8
JISSEN
100
AcDbCircle
 10
969.3051551545787
 20
609.1044931515844
 30
0.0
 40
3.0
100
AcDbArc
 50
300.0000000000086
 51
29.99999999999997
  0
LINE
  5
5614
330
18
100
AcDbEntity
  8
JISSEN
100
AcDbLine
 10
978.555066226947
 20
654.5685947667225
 30
0.0
 11
973.1233122759631
 21
656.5685947667225
 31
0.0
  0
ARC
  5
5615
330
18
100
AcDbEntity
  8
JISSEN
100
AcDbCircle
 10
887.6308180064098
 20
-299.4314052332774
 30
0.0
 40
1000.0
100
AcDbArc
 50
84.91130035835038
 51
88.90806815007826
  0
LINE
  5
5616
330
18
100
AcDbEntity
  8
JISSEN
100
AcDbLine
 10
979.0625719573936
 20
691.5685947667225
 30
0.0
 11
796.1990640554258
 21
691.5685947667225
 31
0.0
  0
LINE
  5
5617
330
18
100
AcDbEntity
  8
JISSEN
100
AcDbLine
 10
978.555066226947
 20
691.5685947667225
 30
0.0
 11
796.7065697858725
 21
691.5685947667225
 31
0.0
  0
LINE
  5
5618
330
18
100
AcDbEntity
  8
JISSEN
100
AcDbLine
 10
623.0236901554398
 20
937.1579631442182
 30
0.0
 11
623.0236901554398
 21
908.3319984594727
 31
0.0
  0
LINE
  5
5619
330
18
100
AcDbEntity
  8
JISSEN
100
AcDbLine
 10
634.0236901554399
 20
935.7449808018454
 30
0.0
 11
634.0236901554399
 21
909.7449808018454
 31
0.0
  0
ARC
  5
561A
330
18
100
AcDbEntity
  8
JISSEN
100
AcDbCircle
 10
609.3293874343516
 20
1058.465218897087
 30
0.0
 40
150.7564851208274
100
AcDbArc
 50
275.2117745984087
 51
279.4276815552398
  0
ARC
  5
561B
330
18
100
AcDbEntity
  8
JISSEN
100
AcDbCircle
 10
609.3293874343516
 20
787.0247427066033
 30
0.0
 40
150.7564851208274
100
AcDbArc
 50
80.57231844476019
 51
84.7882254015912
  0
LINE
  5
561C
330
18
100
AcDbEntity
  8
JISSEN
100
AcDbLine
 10
620.0236901554399
 20
937.4014353663906
 30
0.0
 11
620.0236901554399
 21
908.0885262373003
 31
0.0
  0
LINE
  5
561D
330
18
100
AcDbEntity
  8
JISSEN
100
AcDbLine
 10
613.0236901554399
 20
937.7359564015087
 30
0.0
 11
613.0236901554399
 21
907.7540052021822
 31
0.0
  0
ARC
  5
561E
330
18
100
AcDbEntity
  8
JISSEN
100
AcDbCircle
 10
609.3293874343516
 20
1058.465218897087
 30
0.0
 40
150.7564851208274
100
AcDbArc
 50
271.4041793568652
 51
274.0678414285588
  0
ARC
  5
561F
330
18
100
AcDbEntity
  8
JISSEN
100
AcDbCircle
 10
609.3293874343516
 20
787.0247427066033
 30
0.0
 40
150.7564851208274
100
AcDbArc
 50
85.93215857144112
 51
88.5958206431348
  0
ARC
  5
5620
330
18
100
AcDbEntity
  8
JISSEN
100
AcDbCircle
 10
621.5236901554399
 20
908.2102623483869
 30
0.0
 40
1.504931786076144
100
AcDbArc
 50
4.639808013474561
 51
184.6398080134918
  0
ARC
  5
5621
330
18
100
AcDbEntity
  8
JISSEN
100
AcDbCircle
 10
621.5236901554399
 20
937.2796992553039
 30
0.0
 40
1.504931786076144
100
AcDbArc
 50
175.3601919865082
 51
355.3601919865254
  0
ARC
  5
5622
330
18
100
AcDbEntity
  8
JISSEN
100
AcDbCircle
 10
887.6308180064098
 20
1689.87466417578
 30
0.0
 40
989.6711539721932
100
AcDbArc
 50
268.8966706439471
 51
271.1033293560525
  0
ARC
  5
5623
330
18
100
AcDbEntity
  8
JISSEN
100
AcDbCircle
 10
887.6308180064098
 20
-299.4314052332774
 30
0.0
 40
1000.0
100
AcDbArc
 50
91.09193184992195
 51
95.08869964164956
  0
LINE
  5
5624
330
18
100
AcDbEntity
  8
JISSEN
100
AcDbLine
 10
796.1990640554258
 20
693.6389975545371
 30
0.0
 11
796.1990640554258
 21
691.5685947667225
 31
0.0
  0
ARC
  5
5625
330
18
100
AcDbEntity
  8
JISSEN
100
AcDbCircle
 10
799.199064055425
 20
693.6389975545371
 30
0.0
 40
3.0
100
AcDbArc
 50
95.08869964162784
 51
180.0000000000086
  0
LINE
  5
5626
330
18
100
AcDbEntity
  8
JISSEN
100
AcDbLine
 10
885.0185546701268
 20
706.6877586766022
 30
0.0
 11
884.6317940990239
 21
700.2080542205622
 31
0.0
  0
LINE
  5
5627
330
18
100
AcDbEntity
  8
JISSEN
100
AcDbLine
 10
890.2430813426926
 20
706.6877586766013
 30
0.0
 11
890.6298419137947
 21
700.2080542205622
 31
0.0
  0
LINE
  5
5628
330
18
100
AcDbEntity
  8
JISSEN
100
AcDbLine
 10
888.2466345082939
 20
708.5685947667216
 30
0.0
 11
887.0150015045256
 21
708.5685947667225
 31
0.0
  0
ARC
  5
5629
330
18
100
AcDbEntity
  8
JISSEN
100
AcDbCircle
 10
888.2466345082939
 20
706.5685947667216
 30
0.0
 40
2.0
100
AcDbArc
 50
3.415817620491425
 51
89.99999999999998
  0
ARC
  5
562A
330
18
100
AcDbEntity
  8
JISSEN
100
AcDbCircle
 10
887.0150015045256
 20
706.5685947667216
 30
0.0
 40
2.0
100
AcDbArc
 50
89.99999999999998
 51
176.5841823795085
  0
LINE
  5
562B
330
18
100
AcDbEntity
  8
JISSEN
100
AcDbLine
 10
979.0625719573936
 20
693.6389975545371
 30
0.0
 11
979.0625719573936
 21
691.5685947667225
 31
0.0
  0
ARC
  5
562C
330
18
100
AcDbEntity
  8
JISSEN
100
AcDbCircle
 10
976.0625719573935
 20
693.6389975545361
 30
0.0
 40
3.0
100
AcDbArc
 50
0.0
 51
84.91130035833828
  0
LINE
  5
5645
330
18
100
AcDbEntity
  8
JISSEN
100
AcDbLine
 10
762.7756514483526
 20
410.7409750984743
 30
0.0
 11
762.7756514483526
 21
391.5685947667225
 31
0.0
  0
LINE
  5
5647
330
18
100
AcDbEntity
  8
JISSEN
100
AcDbLine
 10
533.5236901554399
 20
807.7449808018455
 30
0.0
 11
533.5236901554399
 21
796.7449808018455
 31
0.0
  0
LINE
  5
5648
330
18
100
AcDbEntity
  8
JISSEN
100
AcDbLine
 10
526.8432961050157
 20
807.7449808018455
 30
0.0
 11
526.8432961050157
 21
803.4253748522706
 31
0.0
  0
LINE
  5
5649
330
18
100
AcDbEntity
  8
JISSEN
100
AcDbLine
 10
523.3432961050148
 20
808.4253748522705
 30
0.0
 11
523.3432961050148
 21
806.9253748522706
 31
0.0
  0
LINE
  5
564A
330
18
100
AcDbEntity
  8
JISSEN
100
AcDbLine
 10
803.1263802531171
 20
488.5685947667233
 30
0.0
 11
781.6308180064098
 21
488.5685947667234
 31
0.0
  0
LINE
  5
564B
330
18
100
AcDbEntity
  8
JISSEN
100
AcDbLine
 10
807.0020390252052
 20
484.5685947667225
 30
0.0
 11
777.6308180064098
 21
484.5685947667225
 31
0.0
  0
LINE
  5
564C
330
18
100
AcDbEntity
  8
JISSEN
100
AcDbLine
 10
863.1308180064097
 20
488.5685947667231
 30
0.0
 11
829.1308180064088
 21
488.5685947667232
 31
0.0
  0
LINE
  5
564D
330
18
100
AcDbEntity
  8
JISSEN
100
AcDbLine
 10
863.1308180064097
 20
484.5685947667225
 30
0.0
 11
834.8837801748878
 21
484.5685947667225
 31
0.0
  0
LINE
  5
564E
330
18
100
AcDbEntity
  8
JISSEN
100
AcDbLine
 10
946.1308180064103
 20
488.5685947667227
 30
0.0
 11
912.1308180064097
 21
488.5685947667228
 31
0.0
  0
LINE
  5
564F
330
18
100
AcDbEntity
  8
JISSEN
100
AcDbLine
 10
940.3778558379316
 20
484.5685947667225
 30
0.0
 11
912.1308180064097
 21
484.5685947667225
 31
0.0
  0
LINE
  5
5650
330
18
100
AcDbEntity
  8
JISSEN
100
AcDbLine
 10
757.6308180064093
 20
413.5685947667225
 30
0.0
 11
1017.630818006409
 21
413.5685947667225
 31
0.0
  0
LINE
  5
5651
330
18
100
AcDbEntity
  8
JISSEN
100
AcDbLine
 10
757.6308180064097
 20
411.5685947667225
 30
0.0
 11
1017.630818006409
 21
411.5685947667225
 31
0.0
  0
DIMENSION
  5
565F
330
18
100
AcDbEntity
  8
SUNPOU
100
AcDbDimension
  2
*D28
 10
533.5236901554399
 20
1123.605807489122
 30
0.0
 11
426.0236901554399
 21
1136.105807489122
 31
0.0
 70
    32
  3
IMCADLT
100
AcDbAlignedDimension
 13
318.5236901554399
 23
1048.744980801844
 33
0.0
 14
533.5236901554399
 24
1048.744980801844
 34
0.0
100
AcDbRotatedDimension
  0
DIMENSION
  5
566C
330
18
100
AcDbEntity
  8
SUNPOU
100
AcDbDimension
  2
*D29
 10
275.7486132292615
 20
1027.744980801845
 30
0.0
 11
263.2486132292613
 21
922.7449808018455
 31
0.0
 70
    32
  3
IMCADLT
100
AcDbAlignedDimension
 13
346.5236901554399
 23
817.7449808018455
 33
0.0
 14
346.5236901554408
 24
1027.744980801845
 34
0.0
 50
90.0
100
AcDbRotatedDimension
  0
DIMENSION
  5
5679
330
18
100
AcDbEntity
  8
SUNPOU
100
AcDbDimension
  2
*D30
 10
241.1070937818367
 20
1052.744980801844
 30
0.0
 11
228.6070937818365
 21
922.744980801845
 31
0.0
 70
    32
  3
IMCADLT
100
AcDbAlignedDimension
 13
322.5236901554408
 23
792.7449808018455
 33
0.0
 14
322.5236901554399
 24
1052.744980801844
 34
0.0
 50
90.0
100
AcDbRotatedDimension
  0
DIMENSION
  5
5686
330
18
100
AcDbEntity
  8
SUNPOU
100
AcDbDimension
  2
*D31
 10
515.5236901554399
 20
1092.137101924916
 30
0.0
 11
426.0236901554403
 21
1104.637101924916
 31
0.0
 70
    32
  3
IMCADLT
100
AcDbAlignedDimension
 13
336.5236901554408
 23
1017.744980801845
 33
0.0
 14
515.5236901554399
 24
1017.744980801845
 34
0.0
100
AcDbRotatedDimension
  0
DIMENSION
  5
5693
330
18
100
AcDbEntity
  8
SUNPOU
100
AcDbDimension
  2
*D32
 10
634.0236901554401
 20
1092.137101924916
 30
0.0
 11
574.77369015544
 21
1104.637101924916
 31
0.0
 70
    32
  3
IMCADLT
100
AcDbAlignedDimension
 13
515.5236901554399
 23
1017.744980801845
 33
0.0
 14
634.0236901554401
 24
935.7449808018454
 34
0.0
100
AcDbRotatedDimension
1001
ACAD
1000
DSTYLE
1002
{
1070
   287
1070
     4
1070
   279
1070
     1
1002
}
  0
DIMENSION
  5
56AD
330
18
100
AcDbEntity
  8
SUNPOU
100
AcDbDimension
  2
*D33
 10
488.0236901554399
 20
351.8654684554821
 30
0.0
 11
426.0236901554399
 21
364.3654684554821
 31
0.0
 70
    32
  3
IMCADLT
100
AcDbAlignedDimension
 13
364.0236901554398
 23
484.568594766722
 33
0.0
 14
488.0236901554399
 24
484.568594766722
 34
0.0
100
AcDbRotatedDimension
  0
DIMENSION
  5
56C7
330
18
100
AcDbEntity
  8
SUNPOU
100
AcDbDimension
  2
*D34
 10
997.6308180064098
 20
351.7605223864193
 30
0.0
 11
887.6308180064098
 21
364.2605223864193
 31
0.0
 70
    32
  3
IMCADLT
100
AcDbAlignedDimension
 13
777.6308180064098
 23
484.5685947667225
 33
0.0
 14
997.6308180064098
 24
484.568594766722
 34
0.0
100
AcDbRotatedDimension
  0
DIMENSION
  5
56D4
330
18
100
AcDbEntity
  8
SUNPOU
100
AcDbDimension
  2
*D35
 10
634.02369015544
 20
1154.657487796797
 30
0.0
 11
476.2736901554399
 21
1167.157487796797
 31
0.0
 70
    32
  3
IMCADLT
100
AcDbAlignedDimension
 13
318.5236901554399
 23
1048.744980801845
 33
0.0
 14
634.02369015544
 24
935.7449808018454
 34
0.0
100
AcDbRotatedDimension
  0
DIMENSION
  5
56E1
330
18
100
AcDbEntity
  8
SUNPOU
100
AcDbDimension
  2
*D36
 10
1043.307276154155
 20
413.5685947667225
 30
0.0
 11
1030.807276154155
 21
455.7114519095797
 31
0.0
 70
    32
  3
IMCADLT
100
AcDbAlignedDimension
 13
1004.089635855135
 23
391.5685947667224
 33
0.0
 14
1017.630818006409
 24
413.5685947667225
 34
0.0
 50
90.0
100
AcDbRotatedDimension
  0
DIMENSION
  5
56F0
330
18
100
AcDbEntity
  8
SUNPOU
100
AcDbDimension
  2
*D37
 10
1074.877813913168
 20
488.5685947667225
 30
0.0
 11
1062.377813913168
 21
440.0685947667226
 31
0.0
 70
    32
  3
IMCADLT
100
AcDbAlignedDimension
 13
1004.089635855135
 23
391.5685947667224
 33
0.0
 14
993.6308180064097
 24
488.5685947667225
 34
0.0
 50
90.0
100
AcDbRotatedDimension
  0
DIMENSION
  5
56FD
330
18
100
AcDbEntity
  8
SUNPOU
100
AcDbDimension
  2
*D38
 10
1104.424836764024
 20
708.5685947667216
 30
0.0
 11
1091.924836764024
 21
550.0685947667221
 31
0.0
 70
    32
  3
IMCADLT
100
AcDbAlignedDimension
 13
1004.089635855135
 23
391.5685947667224
 33
0.0
 14
888.2466345082955
 24
708.5685947667216
 34
0.0
 50
90.0
100
AcDbRotatedDimension
  0
DIMENSION
  5
570A
330
18
100
AcDbEntity
  8
SUNPOU
100
AcDbDimension
  2
*D39
 10
683.8768716694541
 20
1037.744980801845
 30
0.0
 11
671.3768716694538
 21
922.7449808018457
 31
0.0
 70
    32
  1
%%c230
  3
IMCADLT
100
AcDbAlignedDimension
 13
536.0236901554399
 23
807.7449808018455
 33
0.0
 14
536.0236901554399
 24
1037.744980801845
 34
0.0
 50
90.0
100
AcDbRotatedDimension
  0
MTEXT
  5
58A4
330
18
100
AcDbEntity
  8
SUNPOU
100
AcDbMText
 10
1635.845993179209
 20
48.18861237141573
 30
0.0
 40
10.0
 41
0.0
 71
     5
 72
     1
  1
'04  6  9
1001
ACAD
1000
MTEXTBEGIN
1070
    73
1070
     1
1070
    44
1040
1.0
1070
    74
1070
     0
1000
MTEXTEND
  0
VIEWPORT
  5
2D4C
330
15
100
AcDbEntity
 67
     1
  8
0
100
AcDbViewport
 10
133.3499908447265
 20
101.5999970436096
 30
0.0
 40
316.7900614000069
 41
219.1184806032502
 68
     1
 69
     1
1001
ACAD
1000
MVIEW
1002
{
1070
    16
1010
0.0
1020
0.0
1030
0.0
1010
0.0
1020
0.0
1030
1.0
1040
0.0
1040
219.1184806032502
1040
133.3499908447265
1040
101.5999970436096
1040
50.0
1040
0.0
1040
0.0
1070
     0
1070
   100
1070
     1
1070
     1
1070
     0
1070
     0
1070
     0
1070
     0
1040
0.0
1040
0.0
1040
0.0
1040
10.0
1040
10.0
1040
10.0
1040
10.0
1070
     0
1002
{
1002
}
1002
}
  0
ENDSEC
  0
SECTION
  2
OBJECTS
  0
DICTIONARY
  5
C
330
0
100
AcDbDictionary
  3
ACAD_GROUP
350
D
  3
ACAD_LAYOUT
350
CC
  3
ACAD_MLINESTYLE
350
1B
  3
ACAD_PLOTSETTINGS
350
CD
  3
ACAD_PLOTSTYLENAME
350
CA
  3
ACAMCATALOGSTATE
350
5899
  3
ACASAPPOBJECT
350
5820
  3
ACASGREF_MASTER
350
5868
  3
ACDBVARIABLEDICTIONARY
350
1075
  3
ACDMSYSVARMGR
350
57FF
  3
ACGREF_MASTER
350
1020
  3
ACGREFACAD_MASTER
350
1024
  3
ACMDICTIONARY
350
102A
  3
ACME_BOM_MANAGER_NAME
350
1019
  3
ACME_COMMAND_HISTORY
350
1014
  3
ACME_SCOPE_NAME
350
1013
  3
ACMESTATEMGR
350
101E
  3
ACMESYSVARMANAGER
350
1015
  3
ACMSYSTEMVARIABLEMANAGER
350
102E
  3
AD_APPL
350
5880
  3
AD_GREF_MODULE
350
5869
  3
AD_MAPI_MODULE
350
5882
  3
ADSYSVARMGR
350
5872
  3
AMDTNAMEDDWGMGR
350
581A
  3
AMG
350
1026
  3
AMGSNAPSETTINGS
350
105B
  3
AMI_MASTER
350
1025
  3
ASURF_STATIC_VARS
350
5821
  3
AUTOCAD_ASSEMBLIES_PROJECT
350
588D
  3
AUTOSURF_SYSVARS
350
5822
  3
CONTENTDICTIONARY
350
23
  3
DESIGNER_ASSEMBLIES_SYSVARS
350
5884
  3
DWGPROPS
350
5898
  3
GREFAM_MODULE
350
586B
  3
MAPISURF_MODULE
350
586A
  3
ACDBHEADERROUNDTRIPXREC
350
58E5
  0
DICTIONARY
  5
E62
330
18
100
AcDbDictionary
280
     1
  3
ACAD_INDEX
360
58C9
  3
ACAD_LAYOUTSELFREF
360
5907
  0
DICTIONARY
  5
E60
330
15
100
AcDbDictionary
280
     1
  3
ACAD_LAYOUTSELFREF
360
5906
  0
DICTIONARY
  5
D
102
{ACAD_REACTORS
330
C
102
}
330
C
100
AcDbDictionary
  0
DICTIONARY
  5
CC
102
{ACAD_REACTORS
330
C
102
}
330
C
100
AcDbDictionary
  0
DICTIONARY
  5
1B
102
{ACAD_REACTORS
330
C
102
}
330
C
100
AcDbDictionary
  3
STANDARD
350
1C
  0
DICTIONARY
  5
CD
102
{ACAD_REACTORS
330
C
102
}
330
C
100
AcDbDictionary
  0
ACDBDICTIONARYWDFLT
  5
CA
102
{ACAD_REACTORS
330
C
102
}
330
C
100
AcDbDictionary
281
     1
  3
Normal
350
CB
100
AcDbDictionaryWithDefault
340
CB
  0
ACAD_PROXY_OBJECT
  5
5899
102
{ACAD_REACTORS
330
C
102
}
330
C
100
AcDbProxyObject
 90
      499
 91
      615
 93
      440
310
3FFFFFFFE00A0284402952E2E273A192E3AB9B2B92E47D24AB4C5254A56C75D2E464FC83EAE4A374FDD44EDC95BAE4527C630483EC00AACE
 94
        0
1001
ACAD
1000
AcadProxyRoundTripData
1071
      610
1071
   393239
1070
     0
  0
ACAD_PROXY_OBJECT
  5
5820
102
{ACAD_REACTORS
330
C
102
}
330
C
100
AcDbProxyObject
 90
      499
 91
      615
 93
       10
310
4041
 94
        0
1001
ACAD
1000
AcadProxyRoundTripData
1071
      585
1071
   393239
1070
     0
  0
ACAD_PROXY_OBJECT
  5
5868
102
{ACAD_REACTORS
330
C
102
}
330
C
100
AcDbProxyObject
 90
      499
 91
      615
 93
       34
310
010000407B
 94
        0
1001
ACAD
1000
AcadProxyRoundTripData
1071
      590
1071
   393239
1070
     0
  0
DICTIONARY
  5
1075
102
{ACAD_REACTORS
330
C
102
}
330
C
100
AcDbDictionary
  3
DIMASSOC
350
1077
  3
INDEXCTL
350
1076
  0
ACAD_PROXY_OBJECT
  5
57FF
102
{ACAD_REACTORS
330
C
102
}
330
C
100
AcDbProxyObject
 90
      499
 91
      615
 93
      240
310
4C51A482000000000000000000000000000000000000000000000000000012
330
5800
330
5801
330
5802
330
5803
330
5804
330
5805
330
5806
330
5807
330
5808
330
5809
330
580A
330
580B
330
580C
330
580D
330
580E
330
580F
330
5810
330
5811
330
5812
330
5813
330
5814
330
5815
330
5816
330
5817
330
5818
330
5819
 94
        0
1001
ACAD
1000
AcadProxyRoundTripData
1071
      527
1071
   393239
1070
     0
  0
ACAD_PROXY_OBJECT
  5
1020
102
{ACAD_REACTORS
330
C
102
}
330
C
100
AcDbProxyObject
 90
      499
 91
      615
 93
       34
310
04000042AC
 94
        0
1001
ACAD
1000
AcadProxyRoundTripData
1071
      536
1071
   393239
1070
     0
  0
ACAD_PROXY_OBJECT
  5
1024
102
{ACAD_REACTORS
330
C
102
}
330
C
100
AcDbProxyObject
 90
      499
 91
      615
 93
      114
310
04000041C000000000000000000000
 94
        0
1001
ACAD
1000
AcadProxyRoundTripData
1071
      539
1071
   393239
1070
     0
  0
DICTIONARY
  5
102A
102
{ACAD_REACTORS
330
C
102
}
330
C
100
AcDbDictionary
  3
ACMBOMDATA
350
102B
  3
ACMSTDDICTIONARY
350
1030
  0
ACAD_PROXY_OBJECT
  5
1019
102
{ACAD_REACTORS
330
C
102
}
330
C
100
AcDbProxyObject
 90
      499
 91
      615
 93
       50
310
00010040400013
330
0
330
0
330
101A
 94
        0
1001
ACAD
1000
AcadProxyRoundTripData
1071
      530
1071
   393239
1070
     0
  0
ACAD_PROXY_OBJECT
  5
1014
102
{ACAD_REACTORS
330
C
102
}
330
C
100
AcDbProxyObject
 90
      499
 91
      615
 93
     2054
310
4780504554E444F80504554E444F80504554E444F80504554E444F80504554E444F8050C475249505F535452455443488050C475249505F5354524554434880504504C4F5480505515341564580504554E444F80504554E444F80504554E444F80504554E444F80504554E444F805064444454449548050545524153458050
310
E414D4454524553455444424D4F4440805084E202D20554E444F014213880B4815539113C0504554E444F80504554E444F80504554E444F80504554E444F80504554E444F805045A4F4F4D8050545524153458050755435349434F4E805045A4F4F4D80504434F5059805064D5445444954805064D54454449548050551534
310
156458
 94
        0
1001
ACAD
1000
AcadProxyRoundTripData
1071
      526
1071
   393239
1070
     0
  0
ACAD_PROXY_OBJECT
  5
1013
102
{ACAD_REACTORS
330
C
102
}
330
C
100
AcDbProxyObject
 90
      499
 91
      615
 93
     1226
310
06000044400000000000000000001847020000000000000000000000000000000000000000000000000000000000000000000000000000000000000000000000000000000000000000000000000000000000000000000000000000000000000000000000000000000000000000000000000000000000000000000000000000
310
00000000000000000000000000000000000000000000AAA406AA80
360
1016
360
1017
360
1018
360
101A
360
102F
360
57FA
360
57FB
360
57FC
360
57FD
360
5800
360
5801
360
5802
360
5803
360
5804
360
5805
360
5806
360
5807
360
5808
360
5809
360
580A
360
580B
360
580C
360
580D
360
580E
360
580F
360
5810
360
5811
360
5812
360
5813
360
5814
360
5815
360
5816
360
5817
360
5818
360
5819
360
5823
360
5824
360
5825
360
5826
360
5827
360
5828
360
5829
360
582A
360
582B
360
582C
360
582D
360
582E
360
582F
360
5830
360
5831
360
5832
360
5833
360
5834
360
5835
360
5836
360
5837
360
5838
360
5839
360
583A
360
583B
360
583C
360
583D
360
583E
360
583F
360
5840
360
5841
360
5842
360
5843
360
5844
360
5845
360
5846
360
5847
360
5848
360
5849
360
584A
360
584B
360
584C
360
584D
360
584E
360
584F
360
5850
360
5851
360
5852
360
5853
360
5854
360
5855
360
5856
360
5857
360
5858
360
5859
360
585A
360
585B
360
585C
360
585D
360
585E
360
585F
360
5860
360
5861
360
5862
360
5863
360
5864
360
586E
360
586F
360
5870
360
5871
360
5873
360
5874
360
5875
360
5876
360
5877
360
5878
360
5879
360
587A
360
587B
360
587C
360
587D
360
587E
360
587F
360
5885
360
5886
360
5887
360
5888
360
5889
360
588A
360
588B
360
588C
360
5891
360
5892
360
5893
360
5894
360
5895
360
5896
 94
        0
1001
ACAD
1000
AcadProxyRoundTripData
1071
      525
1071
   393239
1070
     0
  0
ACAD_PROXY_OBJECT
  5
101E
102
{ACAD_REACTORS
330
C
102
}
330
C
100
AcDbProxyObject
 90
      499
 91
      615
 93
       50
310
060000416412A5
 94
        0
1001
ACAD
1000
AcadProxyRoundTripData
1071
      535
1071
   393239
1070
     0
  0
ACAD_PROXY_OBJECT
  5
1015
102
{ACAD_REACTORS
330
C
102
}
330
C
100
AcDbProxyObject
 90
      499
 91
      615
 93
       48
310
9034120000000B
330
1016
330
1017
330
1018
 94
        0
1001
ACAD
1000
AcadProxyRoundTripData
1071
      527
1071
   393239
1070
     0
  0
ACAD_PROXY_OBJECT
  5
102E
102
{ACAD_REACTORS
330
C
102
}
330
C
100
AcDbProxyObject
 90
      499
 91
      615
 93
       32
310
90140A00BB
330
102F
 94
        0
1001
ACAD
1000
AcadProxyRoundTripData
1071
      527
1071
   393239
1070
     0
  0
ACAD_PROXY_OBJECT
  5
5880
102
{ACAD_REACTORS
330
C
102
}
330
C
100
AcDbProxyObject
 90
      499
 91
      615
 93
       42
310
0006000043C1
330
586E
 94
        0
1001
ACAD
1000
AcadProxyRoundTripData
1071
      599
1071
   393239
1070
     0
  0
ACAD_PROXY_OBJECT
  5
5869
102
{ACAD_REACTORS
330
C
102
}
330
C
100
AcDbProxyObject
 90
      499
 91
      615
 93
      114
310
000000438000000000000000000000
 94
        0
1001
ACAD
1000
AcadProxyRoundTripData
1071
      591
1071
   393239
1070
     0
  0
ACAD_PROXY_OBJECT
  5
5882
102
{ACAD_REACTORS
330
C
102
}
330
C
100
AcDbProxyObject
 90
      499
 91
      615
 93
       34
310
05000044EF
 94
        0
1001
ACAD
1000
AcadProxyRoundTripData
1071
      601
1071
   393239
1070
     0
  0
ACAD_PROXY_OBJECT
  5
5872
102
{ACAD_REACTORS
330
C
102
}
330
C
100
AcDbProxyObject
 90
      499
 91
      615
 93
      128
310
90D4420000000000000000000000000000
330
5873
330
5874
330
5875
330
5876
330
5877
330
5878
330
5879
330
587A
330
587B
330
587C
330
587D
330
587E
330
587F
 94
        0
1001
ACAD
1000
AcadProxyRoundTripData
1071
      527
1071
   393239
1070
     0
  0
ACAD_PROXY_OBJECT
  5
581A
102
{ACAD_REACTORS
330
C
102
}
330
C
100
AcDbProxyObject
 90
      499
 91
      615
 93
       42
310
000100005AC1
330
57FA
 94
        0
1001
ACAD
1000
AcadProxyRoundTripData
1071
      582
1071
   393239
1070
     0
  0
DICTIONARY
  5
1026
102
{ACAD_REACTORS
330
C
102
}
330
C
100
AcDbDictionary
  3
ACMGSETTINGS
350
1027
  3
AMGLAYCFG
350
1032
  0
DICTIONARY
  5
105B
102
{ACAD_REACTORS
330
C
102
}
330
C
100
AcDbDictionary
  3
DIMENSION
350
1060
  3
FEA
350
105F
  3
HATCH__1_
350
105C
  3
HATCH__2_
350
105D
  3
SIMPLE_WELD
350
1061
  3
SYMBOLS
350
105E
  0
ACAD_PROXY_OBJECT
  5
1025
102
{ACAD_REACTORS
330
C
102
}
330
C
100
AcDbProxyObject
 90
      499
 91
      615
 93
       34
310
05000042BB
 94
        0
1001
ACAD
1000
AcadProxyRoundTripData
1071
      540
1071
   393239
1070
     0
  0
ACAD_PROXY_OBJECT
  5
5821
102
{ACAD_REACTORS
330
C
102
}
330
C
100
AcDbProxyObject
 90
      499
 91
      615
 93
      424
310
585315020000000000000000000000000000000000000000000000000000000000000000000000000000000000000000000000000000
330
5834
330
5835
330
5836
330
5837
330
5838
330
5839
330
583A
330
583B
330
583C
330
583D
330
583E
330
583F
330
5840
330
5841
330
5842
330
5843
330
5844
330
5845
330
5846
330
5847
330
5848
330
5849
330
584A
330
584B
330
584C
330
584D
330
584E
330
584F
330
5850
330
5851
330
5852
330
5853
330
5854
330
5855
330
5856
330
5857
330
5858
330
5859
330
585A
330
585B
330
585C
330
585D
330
585E
330
585F
330
5860
330
5861
330
5862
330
5863
330
5864
 94
        0
1001
ACAD
1000
AcadProxyRoundTripData
1071
      586
1071
   393239
1070
     0
  0
ACAD_PROXY_OBJECT
  5
588D
102
{ACAD_REACTORS
330
C
102
}
330
C
100
AcDbProxyObject
 90
      499
 91
      615
 93
       74
310
0600004A400000000013
330
5894
330
0
330
5895
330
0
330
0
 94
        0
1001
ACAD
1000
AcadProxyRoundTripData
1071
      603
1071
   393239
1070
     0
  0
ACAD_PROXY_OBJECT
  5
5822
102
{ACAD_REACTORS
330
C
102
}
330
C
100
AcDbProxyObject
 90
      499
 91
      615
 93
      168
310
4C511482000000000000000000000000000000000000
330
5823
330
5824
330
5825
330
5826
330
5827
330
5828
330
5829
330
582A
330
582B
330
582C
330
582D
330
582E
330
582F
330
5830
330
5831
330
5832
330
5833
 94
        0
1001
ACAD
1000
AcadProxyRoundTripData
1071
      527
1071
   393239
1070
     0
  0
DICTIONARY
  5
23
102
{ACAD_REACTORS
330
C
102
}
330
C
100
AcDbDictionary
  0
ACAD_PROXY_OBJECT
  5
5884
102
{ACAD_REACTORS
330
C
102
}
330
C
100
AcDbProxyObject
 90
      499
 91
      615
 93
       88
310
908422000000000000000000
330
5885
330
5886
330
5887
330
5888
330
5889
330
588A
330
588B
330
588C
 94
        0
1001
ACAD
1000
AcadProxyRoundTripData
1071
      527
1071
   393239
1070
     0
  0
XRECORD
  5
5898
102
{ACAD_REACTORS
330
C
102
}
330
C
100
AcDbXrecord
  1
DWGPROPS COOKIE
  2

  3

  4

  6

  7

  8

  9

300
AmdtFileType=84
301
=
302
=
303
=
304
=
305
=
306
=
307
=
308
=
309
=
 40
3.272200543981481
 41
2452703.606793553
 42
2453166.696777303
  1

 90
        1
  0
ACAD_PROXY_OBJECT
  5
586B
102
{ACAD_REACTORS
330
C
102
}
330
C
100
AcDbProxyObject
 90
      499
 91
      615
 93
        8
310
0500
 94
        0
1001
ACAD
1000
AcadProxyRoundTripData
1071
      593
1071
   393239
1070
     0
  0
ACAD_PROXY_OBJECT
  5
586A
102
{ACAD_REACTORS
330
C
102
}
330
C
100
AcDbProxyObject
 90
      499
 91
      615
 93
        8
310
0400
 94
        0
1001
ACAD
1000
AcadProxyRoundTripData
1071
      592
1071
   393239
1070
     0
  0
DICTIONARY
  5
58E5
102
{ACAD_REACTORS
330
C
102
}
330
C
100
AcDbDictionary
  3
TSTACKALIGN
350
58E6
  3
TSTACKSIZE
350
58E7
  3
HYPERLINKBASE
350
58E8
  3
STYLESHEET
350
58E9
  3
LAYOUTDICT
350
58EA
  3
PLOTSETDICT
350
58EB
  3
PLOTSTYLNAMDICT
350
58EC
  3
LWETCUNION
350
58ED
  3
INSUNITS
350
58EE
  3
CEPSNTYPE
350
58EF
  3
FINGERPRINTGUID
350
58F0
  3
VERSIONGUID
350
58F1
  3
PSVPSCALE
350
58F2
  3
DIMSTYLEDATA
350
58F3
  3
PUCSORTHOREF
350
58F4
  3
PUCSORTHOVIEW
350
58F5
  3
PUCSBASE
350
58F6
  3
PUCSORGTOP
350
58F7
  3
PUCSORGBOTTOM
350
58F8
  3
PUCSORGLEFT
350
58F9
  3
PUCSORGRIGHT
350
58FA
  3
PUCSORGFRONT
350
58FB
  3
PUCSORGBACK
350
58FC
  3
UCSORTHOREF
350
58FD
  3
UCSORTHOVIEW
350
58FE
  3
UCSBASE
350
58FF
  3
UCSORGTOP
350
5900
  3
UCSORGBOTTOM
350
5901
  3
UCSORGLEFT
350
5902
  3
UCSORGRIGHT
350
5903
  3
UCSORGFRONT
350
5904
  3
UCSORGBACK
350
5905
  0
DICTIONARY
  5
58C9
102
{ACAD_REACTORS
330
E62
102
}
330
E62
100
AcDbDictionary
  3
*A1
350
58CA
  0
XRECORD
  5
5907
102
{ACAD_REACTORS
330
E62
102
}
330
E62
100
AcDbXrecord
340
18
  0
XRECORD
  5
5906
102
{ACAD_REACTORS
330
E60
102
}
330
E60
100
AcDbXrecord
340
15
  0
MLINESTYLE
  5
1C
102
{ACAD_REACTORS
330
1B
102
}
330
1B
100
AcDbMlineStyle
  2
STANDARD
 70
     0
  3

 62
   256
 51
90.0
 52
90.0
 71
     2
 49
0.5
 62
   256
  6
BYLAYER
 49
-0.5
 62
   256
  6
BYLAYER
  0
ACDBPLACEHOLDER
  5
CB
102
{ACAD_REACTORS
330
CA
102
}
330
CA
100
AcDbPlaceHolder
280
     0
  0
DICTIONARYVAR
  5
1077
102
{ACAD_REACTORS
330
1075
102
}
330
1075
100
DictionaryVariables
280
     0
  1
1
  0
DICTIONARYVAR
  5
1076
102
{ACAD_REACTORS
330
1075
102
}
330
1075
100
DictionaryVariables
280
     0
  1
1
  0
ACAD_PROXY_OBJECT
  5
102B
102
{ACAD_REACTORS
330
102A
102
}
330
102A
100
AcDbProxyObject
 90
      499
 91
      615
 93
      118
310
405010040CA904C415CD5B07571029
350
102C
 94
        0
1001
ACAD
1000
AcadProxyRoundTripData
1071
      542
1071
   393239
1070
     0
  0
DICTIONARY
  5
1030
102
{ACAD_REACTORS
330
102A
102
}
330
102A
100
AcDbDictionary
  3
ANSI
350
2A95
  3
ISO
350
1031
  0
ACAD_PROXY_OBJECT
  5
1016
330
0
100
AcDbProxyObject
 90
      499
 91
      615
 93
      156
310
00010143D050D351505391D5531054925390D494
330
1013
 94
        0
1001
ACAD
1000
AcadProxyRoundTripData
1071
      528
1071
   393239
1070
     0
  0
ACAD_PROXY_OBJECT
  5
1017
330
0
100
AcDbProxyObject
 90
      499
 91
      615
 93
      148
310
000101439050D351531253915054925390D494
330
1013
 94
        0
1001
ACAD
1000
AcadProxyRoundTripData
1071
      528
1071
   393239
1070
     0
  0
ACAD_PROXY_OBJECT
  5
1018
330
0
100
AcDbProxyObject
 90
      499
 91
      615
 93
      156
310
000101439050D35154D6535093D314D256915084
330
1013
 94
        0
1001
ACAD
1000
AcadProxyRoundTripData
1071
      529
1071
   393239
1070
     0
  0
ACAD_PROXY_OBJECT
  5
101A
330
0
100
AcDbProxyObject
 90
      499
 91
      615
 93
      120
310
000101422565255A6557080C402B0000
330
1013
330
0
330
0
 94
        0
1001
ACAD
1000
AcadProxyRoundTripData
1071
      531
1071
   393239
1070
     0
  0
ACAD_PROXY_OBJECT
  5
102F
330
0
100
AcDbProxyObject
 90
      499
 91
      615
 93
      140
310
00010142105350D55494D5110050349534F8
330
1013
 94
        0
1001
ACAD
1000
AcadProxyRoundTripData
1071
      544
1071
   393239
1070
     0
  0
ACAD_PROXY_OBJECT
  5
57FA
330
0
100
AcDbProxyObject
 90
      499
 91
      615
 93
      358
310
0001014124FEA55D00507362E332E302E31014124FEA55D00507362E332E302E3140501000041505391D311659
330
1013
330
57FB
330
57FF
 94
        0
1001
ACAD
1000
AcadProxyRoundTripData
1071
      578
1071
   393239
1070
     0
  0
ACAD_PROXY_OBJECT
  5
57FB
330
0
100
AcDbProxyObject
 90
      499
 91
      615
 93
       48
310
00019014220016
330
1013
330
57FC
 94
        0
1001
ACAD
1000
AcadProxyRoundTripData
1071
      579
1071
   393239
1070
     0
  0
ACAD_PROXY_OBJECT
  5
57FC
330
0
100
AcDbProxyObject
 90
      499
 91
      615
 93
       48
310
0001AA00000016
330
1013
330
CF
330
57FD
330
0
 94
        0
1001
ACAD
1000
AcadProxyRoundTripData
1071
      580
1071
   393239
1070
     0
  0
ACAD_PROXY_OBJECT
  5
57FD
330
0
100
AcDbProxyObject
 90
      499
 91
      615
 93
       28
310
0001AAAA
330
1013
 94
        0
1001
ACAD
1000
AcadProxyRoundTripData
1071
      581
1071
   393239
1070
     0
  0
ACAD_PROXY_OBJECT
  5
5800
330
0
100
AcDbProxyObject
 90
      499
 91
      615
 93
      108
310
000101421053521310D05310D018
330
1013
 94
        0
1001
ACAD
1000
AcadProxyRoundTripData
1071
      529
1071
   393239
1070
     0
  0
ACAD_PROXY_OBJECT
  5
5801
330
0
100
AcDbProxyObject
 90
      499
 91
      615
 93
      124
310
00010142905354915554D15112535010
330
1013
 94
        0
1001
ACAD
1000
AcadProxyRoundTripData
1071
      529
1071
   393239
1070
     0
  0
ACAD_PROXY_OBJECT
  5
5802
330
0
100
AcDbProxyObject
 90
      499
 91
      615
 93
      132
310
00010143105354D150D51253D391125368
330
1013
 94
        0
1001
ACAD
1000
AcadProxyRoundTripData
1071
      529
1071
   393239
1070
     0
  0
ACAD_PROXY_OBJECT
  5
5803
330
0
100
AcDbProxyObject
 90
      499
 91
      615
 93
      124
310
00010142905355941093D49111549010
330
1013
 94
        0
1001
ACAD
1000
AcadProxyRoundTripData
1071
      529
1071
   393239
1070
     0
  0
ACAD_PROXY_OBJECT
  5
5804
330
0
100
AcDbProxyObject
 90
      499
 91
      615
 93
      116
310
0001014290535115D1D0D3D313D4A0
330
1013
 94
        0
1001
ACAD
1000
AcadProxyRoundTripData
1071
      529
1071
   393239
1070
     0
  0
ACAD_PROXY_OBJECT
  5
5805
330
0
100
AcDbProxyObject
 90
      499
 91
      615
 93
      148
310
00010143505355925155D49151949154D21010
330
1013
 94
        0
1001
ACAD
1000
AcadProxyRoundTripData
1071
      529
1071
   393239
1070
     0
  0
ACAD_PROXY_OBJECT
  5
5806
330
0
100
AcDbProxyObject
 90
      499
 91
      615
 93
      172
310
00010144105350539393D51154149154D15495915010
330
1013
 94
        0
1001
ACAD
1000
AcadProxyRoundTripData
1071
      529
1071
   393239
1070
     0
  0
ACAD_PROXY_OBJECT
  5
5807
330
0
100
AcDbProxyObject
 90
      499
 91
      615
 93
      172
310
00010144105350555513D11253505494905391D15010
330
1013
 94
        0
1001
ACAD
1000
AcadProxyRoundTripData
1071
      529
1071
   393239
1070
     0
  0
ACAD_PROXY_OBJECT
  5
5808
330
0
100
AcDbProxyObject
 90
      499
 91
      615
 93
      124
310
00010142D05351561514915191125364
330
1013
 94
        0
1001
ACAD
1000
AcadProxyRoundTripData
1071
      529
1071
   393239
1070
     0
  0
ACAD_PROXY_OBJECT
  5
5809
330
0
100
AcDbProxyObject
 90
      499
 91
      615
 93
      132
310
00010142D05355105410539393D5115010
330
1013
 94
        0
1001
ACAD
1000
AcadProxyRoundTripData
1071
      529
1071
   393239
1070
     0
  0
ACAD_PROXY_OBJECT
  5
580A
330
0
100
AcDbProxyObject
 90
      499
 91
      615
 93
      108
310
00010142105350555513D0D31012
330
1013
 94
        0
1001
ACAD
1000
AcadProxyRoundTripData
1071
      529
1071
   393239
1070
     0
  0
ACAD_PROXY_OBJECT
  5
580B
330
0
100
AcDbProxyObject
 90
      499
 91
      615
 93
      108
310
00010142105350D3119150551055
330
1013
 94
        0
1001
ACAD
1000
AcadProxyRoundTripData
1071
      529
1071
   393239
1070
     0
  0
ACAD_PROXY_OBJECT
  5
580C
330
0
100
AcDbProxyObject
 90
      499
 91
      615
 93
      108
310
00010142105350D315925155D3F2
330
1013
 94
        0
1001
ACAD
1000
AcadProxyRoundTripData
1071
      529
1071
   393239
1070
     0
  0
ACAD_PROXY_OBJECT
  5
580D
330
0
100
AcDbProxyObject
 90
      499
 91
      615
 93
      148
310
0001014350535212511156915493D112535011
330
1013
 94
        0
1001
ACAD
1000
AcadProxyRoundTripData
1071
      529
1071
   393239
1070
     0
  0
ACAD_PROXY_OBJECT
  5
580E
330
0
100
AcDbProxyObject
 90
      499
 91
      615
 93
      124
310
00010142905352105510D21254D3D014
330
1013
 94
        0
1001
ACAD
1000
AcadProxyRoundTripData
1071
      529
1071
   393239
1070
     0
  0
ACAD_PROXY_OBJECT
  5
580F
330
0
100
AcDbProxyObject
 90
      499
 91
      615
 93
      148
310
00010143905354D25391D31152105513105661
330
1013
 94
        0
1001
ACAD
1000
AcadProxyRoundTripData
1071
      529
1071
   393239
1070
     0
  0
ACAD_PROXY_OBJECT
  5
5810
330
0
100
AcDbProxyObject
 90
      499
 91
      615
 93
      124
310
00010142D0535115D1D193111254D424
330
1013
 94
        0
1001
ACAD
1000
AcadProxyRoundTripData
1071
      529
1071
   393239
1070
     0
  0
ACAD_PROXY_OBJECT
  5
5811
330
0
100
AcDbProxyObject
 90
      499
 91
      615
 93
      100
310
00010142105350555513D213A2
330
1013
 94
        0
1001
ACAD
1000
AcadProxyRoundTripData
1071
      529
1071
   393239
1070
     0
  0
ACAD_PROXY_OBJECT
  5
5812
330
0
100
AcDbProxyObject
 90
      499
 91
      615
 93
      116
310
000101425053521390D3D553951014
330
1013
 94
        0
1001
ACAD
1000
AcadProxyRoundTripData
1071
      529
1071
   393239
1070
     0
  0
ACAD_PROXY_OBJECT
  5
5813
330
0
100
AcDbProxyObject
 90
      499
 91
      615
 93
      108
310
0001014210535213941493D29010
330
1013
 94
        0
1001
ACAD
1000
AcadProxyRoundTripData
1071
      529
1071
   393239
1070
     0
  0
ACAD_PROXY_OBJECT
  5
5814
330
0
100
AcDbProxyObject
 90
      499
 91
      615
 93
      108
310
0001014210535213951654115070
330
1013
 94
        0
1001
ACAD
1000
AcadProxyRoundTripData
1071
      529
1071
   393239
1070
     0
  0
ACAD_PROXY_OBJECT
  5
5815
330
0
100
AcDbProxyObject
 90
      499
 91
      615
 93
      108
310
000101421053521395925155D0F0
330
1013
 94
        0
1001
ACAD
1000
AcadProxyRoundTripData
1071
      529
1071
   393239
1070
     0
  0
ACAD_PROXY_OBJECT
  5
5816
330
0
100
AcDbProxyObject
 90
      499
 91
      615
 93
      140
310
00010143505354D150D51253D390D3D41666
330
1013
 94
        0
1001
ACAD
1000
AcadProxyRoundTripData
1071
      529
1071
   393239
1070
     0
  0
ACAD_PROXY_OBJECT
  5
5817
330
0
100
AcDbProxyObject
 90
      499
 91
      615
 93
      108
310
00010142105350D3141493D29030
330
1013
 94
        0
1001
ACAD
1000
AcadProxyRoundTripData
1071
      529
1071
   393239
1070
     0
  0
ACAD_PROXY_OBJECT
  5
5818
330
0
100
AcDbProxyObject
 90
      499
 91
      615
 93
      212
310
00010143905350555513D2105510D21493D500000000000002E400
330
1013
 94
        0
1001
ACAD
1000
AcadProxyRoundTripData
1071
      528
1071
   393239
1070
     0
  0
ACAD_PROXY_OBJECT
  5
5819
330
0
100
AcDbProxyObject
 90
      499
 91
      615
 93
      156
310
00010143905350555513D2105510D21111551010
330
1013
 94
        0
1001
ACAD
1000
AcadProxyRoundTripData
1071
      529
1071
   393239
1070
     0
  0
ACAD_PROXY_OBJECT
  5
5823
330
0
100
AcDbProxyObject
 90
      499
 91
      615
 93
      116
310
000101425053541051D15311539191
330
1013
 94
        0
1001
ACAD
1000
AcadProxyRoundTripData
1071
      529
1071
   393239
1070
     0
  0
ACAD_PROXY_OBJECT
  5
5824
330
0
100
AcDbProxyObject
 90
      499
 91
      615
 93
      108
310
000101421053555312539154D050
330
1013
 94
        0
1001
ACAD
1000
AcadProxyRoundTripData
1071
      529
1071
   393239
1070
     0
  0
ACAD_PROXY_OBJECT
  5
5825
330
0
100
AcDbProxyObject
 90
      499
 91
      615
 93
      108
310
000101421053559312539154D031
330
1013
 94
        0
1001
ACAD
1000
AcadProxyRoundTripData
1071
      529
1071
   393239
1070
     0
  0
ACAD_PROXY_OBJECT
  5
5826
330
0
100
AcDbProxyObject
 90
      499
 91
      615
 93
      140
310
00010143105354D1911254D41353D1115010
330
1013
 94
        0
1001
ACAD
1000
AcadProxyRoundTripData
1071
      529
1071
   393239
1070
     0
  0
ACAD_PROXY_OBJECT
  5
5827
330
0
100
AcDbProxyObject
 90
      499
 91
      615
 93
      172
310
00010142505354119255105391C1C052DC9A6F104408
330
1013
 94
        0
1001
ACAD
1000
AcadProxyRoundTripData
1071
      528
1071
   393239
1070
     0
  0
ACAD_PROXY_OBJECT
  5
5828
330
0
100
AcDbProxyObject
 90
      499
 91
      615
 93
      164
310
000101421053559150D05551C000000000000E03F0
330
1013
 94
        0
1001
ACAD
1000
AcadProxyRoundTripData
1071
      528
1071
   393239
1070
     0
  0
ACAD_PROXY_OBJECT
  5
5829
330
0
100
AcDbProxyObject
 90
      499
 91
      615
 93
      180
310
00010142905350931153911513D307B14AE47E17A843FB
330
1013
 94
        0
1001
ACAD
1000
AcadProxyRoundTripData
1071
      528
1071
   393239
1070
     0
  0
ACAD_PROXY_OBJECT
  5
582A
330
0
100
AcDbProxyObject
 90
      499
 91
      615
 93
      172
310
0001014250535293D25391D05407B14AE47E17A843F0
330
1013
 94
        0
1001
ACAD
1000
AcadProxyRoundTripData
1071
      528
1071
   393239
1070
     0
  0
ACAD_PROXY_OBJECT
  5
582B
330
0
100
AcDbProxyObject
 90
      499
 91
      615
 93
      172
310
000101425053541192551311538000000FC83D797413
330
1013
 94
        0
1001
ACAD
1000
AcadProxyRoundTripData
1071
      528
1071
   393239
1070
     0
  0
ACAD_PROXY_OBJECT
  5
582C
330
0
100
AcDbProxyObject
 90
      499
 91
      615
 93
      156
310
00010141D053559150D4D18000000000000E03F8
330
1013
 94
        0
1001
ACAD
1000
AcadProxyRoundTripData
1071
      528
1071
   393239
1070
     0
  0
ACAD_PROXY_OBJECT
  5
582D
330
0
100
AcDbProxyObject
 90
      499
 91
      615
 93
      156
310
00010141D05354D19513D309A9999999999993F9
330
1013
 94
        0
1001
ACAD
1000
AcadProxyRoundTripData
1071
      528
1071
   393239
1070
     0
  0
ACAD_PROXY_OBJECT
  5
582E
330
0
100
AcDbProxyObject
 90
      499
 91
      615
 93
      172
310
000101425053541192551513D307B14AE47E17A843F0
330
1013
 94
        0
1001
ACAD
1000
AcadProxyRoundTripData
1071
      528
1071
   393239
1070
     0
  0
ACAD_PROXY_OBJECT
  5
582F
330
0
100
AcDbProxyObject
 90
      499
 91
      615
 93
      188
310
00010142D05354D151D192551513D307B14AE47E17A843F8
330
1013
 94
        0
1001
ACAD
1000
AcadProxyRoundTripData
1071
      528
1071
   393239
1070
     0
  0
ACAD_PROXY_OBJECT
  5
5830
330
0
100
AcDbProxyObject
 90
      499
 91
      615
 93
      148
310
000101419053541311538000000FC83D797417
330
1013
 94
        0
1001
ACAD
1000
AcadProxyRoundTripData
1071
      528
1071
   393239
1070
     0
  0
ACAD_PROXY_OBJECT
  5
5831
330
0
100
AcDbProxyObject
 90
      499
 91
      615
 93
      172
310
00010142505354105391D513D301C052DC9A6F104408
330
1013
 94
        0
1001
ACAD
1000
AcadProxyRoundTripData
1071
      528
1071
   393239
1070
     0
  0
ACAD_PROXY_OBJECT
  5
5832
330
0
100
AcDbProxyObject
 90
      499
 91
      615
 93
      132
310
0001014114D25691400000000000024409
330
1013
 94
        0
1001
ACAD
1000
AcadProxyRoundTripData
1071
      528
1071
   393239
1070
     0
  0
ACAD_PROXY_OBJECT
  5
5833
330
0
100
AcDbProxyObject
 90
      499
 91
      615
 93
      156
310
00010142905351D4941491519256005034153470
330
1013
 94
        0
1001
ACAD
1000
AcadProxyRoundTripData
1071
      544
1071
   393239
1070
     0
  0
ACAD_PROXY_OBJECT
  5
5834
330
0
100
AcDbProxyObject
 90
      499
 91
      615
 93
      314
310
00014080509646973745363616C650000000000003C2FC000000000000F0BF0000003F20F5E5D041
330
1013
 94
        0
1001
ACAD
1000
AcadProxyRoundTripData
1071
      587
1071
   393239
1070
     0
  0
ACAD_PROXY_OBJECT
  5
5835
330
0
100
AcDbProxyObject
 90
      499
 91
      615
 93
      322
310
0001408050A65646175526F74617465060B51153EC87E4FC182D4454FB2119C0060B51153EC8465000
330
1013
 94
        0
1001
ACAD
1000
AcadProxyRoundTripData
1071
      587
1071
   393239
1070
     0
  0
ACAD_PROXY_OBJECT
  5
5836
330
0
100
AcDbProxyObject
 90
      499
 91
      615
 93
      314
310
00014080509656461755477697374060B51153EC846500000000FC83D797C10000003F20F5E5D041
330
1013
 94
        0
1001
ACAD
1000
AcadProxyRoundTripData
1071
      587
1071
   393239
1070
     0
  0
ACAD_PROXY_OBJECT
  5
5837
330
0
100
AcDbProxyObject
 90
      499
 91
      615
 93
      294
310
000140C050A656467654F75747075740144F3B7F635ECB74A140A4817D41BDB1E5B1A5B995
330
1013
 94
        0
1001
ACAD
1000
AcadProxyRoundTripData
1071
      588
1071
   393239
1070
     0
  0
ACAD_PROXY_OBJECT
  5
5838
330
0
100
AcDbProxyObject
 90
      499
 91
      615
 93
      154
310
0001404050B65646974507265766965774064040
330
1013
 94
        0
1001
ACAD
1000
AcadProxyRoundTripData
1071
      589
1071
   393239
1070
     0
  0
ACAD_PROXY_OBJECT
  5
5839
330
0
100
AcDbProxyObject
 90
      499
 91
      615
 93
      170
310
0001404050A666C6F77556C696E657342A3A00C0001E
330
1013
 94
        0
1001
ACAD
1000
AcadProxyRoundTripData
1071
      589
1071
   393239
1070
     0
  0
ACAD_PROXY_OBJECT
  5
583A
330
0
100
AcDbProxyObject
 90
      499
 91
      615
 93
      170
310
0001404050A666C6F77566C696E657342A3A00C00000
330
1013
 94
        0
1001
ACAD
1000
AcadProxyRoundTripData
1071
      589
1071
   393239
1070
     0
  0
ACAD_PROXY_OBJECT
  5
583B
330
0
100
AcDbProxyObject
 90
      499
 91
      615
 93
      322
310
0001408050A666C7366456E645261640000000000003C2FC000000000000F0BF0000003F20F5E5D040
330
1013
 94
        0
1001
ACAD
1000
AcadProxyRoundTripData
1071
      587
1071
   393239
1070
     0
  0
ACAD_PROXY_OBJECT
  5
583C
330
0
100
AcDbProxyObject
 90
      499
 91
      615
 93
      246
310
000140C05086A6E33644D6F64650143E3BA24EB8A134A4817D3585B9D585B0
330
1013
 94
        0
1001
ACAD
1000
AcadProxyRoundTripData
1071
      588
1071
   393239
1070
     0
  0
ACAD_PROXY_OBJECT
  5
583D
330
0
100
AcDbProxyObject
 90
      499
 91
      615
 93
      294
310
000140C050A6A6E33644F75747075740144F3B7F635ECB74A140A4817D41BDB1E5B1A5B994
330
1013
 94
        0
1001
ACAD
1000
AcadProxyRoundTripData
1071
      588
1071
   393239
1070
     0
  0
ACAD_PROXY_OBJECT
  5
583E
330
0
100
AcDbProxyObject
 90
      499
 91
      615
 93
      306
310
000140805086C656E675065726300000000002016D002D431CEBE2361A3F0000003F20F5E5D040
330
1013
 94
        0
1001
ACAD
1000
AcadProxyRoundTripData
1071
      587
1071
   393239
1070
     0
  0
ACAD_PROXY_OBJECT
  5
583F
330
0
100
AcDbProxyObject
 90
      499
 91
      615
 93
      266
310
0001408050B6D61737344656E7369747942D431CEBE2361A3F0000003F20F5E5D071
330
1013
 94
        0
1001
ACAD
1000
AcadProxyRoundTripData
1071
      587
1071
   393239
1070
     0
  0
ACAD_PROXY_OBJECT
  5
5840
330
0
100
AcDbProxyObject
 90
      499
 91
      615
 93
      186
310
000140805096D617373546869636BA0000003F20F5E5D043
330
1013
 94
        0
1001
ACAD
1000
AcadProxyRoundTripData
1071
      587
1071
   393239
1070
     0
  0
ACAD_PROXY_OBJECT
  5
5841
330
0
100
AcDbProxyObject
 90
      499
 91
      615
 93
      230
310
000140C05086D6173735479706501436F2AB64A14CA4817D4DA195B1B3
330
1013
 94
        0
1001
ACAD
1000
AcadProxyRoundTripData
1071
      588
1071
   393239
1070
     0
  0
ACAD_PROXY_OBJECT
  5
5842
330
0
100
AcDbProxyObject
 90
      499
 91
      615
 93
      242
310
000140805086F667366446973744000000FC83D797C10000003F20F5E5D040
330
1013
 94
        0
1001
ACAD
1000
AcadProxyRoundTripData
1071
      587
1071
   393239
1070
     0
  0
ACAD_PROXY_OBJECT
  5
5843
330
0
100
AcDbProxyObject
 90
      499
 91
      615
 93
      258
310
0001408050A7072696D52616469757342D431CEBE2361A3F0000003F20F5E5D050
330
1013
 94
        0
1001
ACAD
1000
AcadProxyRoundTripData
1071
      587
1071
   393239
1070
     0
  0
ACAD_PROXY_OBJECT
  5
5844
330
0
100
AcDbProxyObject
 90
      499
 91
      615
 93
      194
310
0001408050A7072696D546F70526164A0000003F20F5E5D040
330
1013
 94
        0
1001
ACAD
1000
AcadProxyRoundTripData
1071
      587
1071
   393239
1070
     0
  0
ACAD_PROXY_OBJECT
  5
5845
330
0
100
AcDbProxyObject
 90
      499
 91
      615
 93
      266
310
0001408050B7072696D5475626552616442D431CEBE2361A3F0000003F20F5E5D071
330
1013
 94
        0
1001
ACAD
1000
AcadProxyRoundTripData
1071
      587
1071
   393239
1070
     0
  0
ACAD_PROXY_OBJECT
  5
5846
330
0
100
AcDbProxyObject
 90
      499
 91
      615
 93
      258
310
0001408050A7072696D4865696768744000000FC83D797C10000003F20F5E5D040
330
1013
 94
        0
1001
ACAD
1000
AcadProxyRoundTripData
1071
      587
1071
   393239
1070
     0
  0
ACAD_PROXY_OBJECT
  5
5847
330
0
100
AcDbProxyObject
 90
      499
 91
      615
 93
      250
310
000140805097072696D5374416E678182D4454FB2119C0060B51153EC8465010
330
1013
 94
        0
1001
ACAD
1000
AcadProxyRoundTripData
1071
      587
1071
   393239
1070
     0
  0
ACAD_PROXY_OBJECT
  5
5848
330
0
100
AcDbProxyObject
 90
      499
 91
      615
 93
      322
310
0001408050A7072696D456E64416E67060B51153EC846500182D4454FB2119C0060B51153EC8465000
330
1013
 94
        0
1001
ACAD
1000
AcadProxyRoundTripData
1071
      587
1071
   393239
1070
     0
  0
ACAD_PROXY_OBJECT
  5
5849
330
0
100
AcDbProxyObject
 90
      499
 91
      615
 93
      242
310
000140805087265765374416E678182D4454FB2119C0060B51153EC8465019
330
1013
 94
        0
1001
ACAD
1000
AcadProxyRoundTripData
1071
      587
1071
   393239
1070
     0
  0
ACAD_PROXY_OBJECT
  5
584A
330
0
100
AcDbProxyObject
 90
      499
 91
      615
 93
      314
310
00014080509726576456E64416E67060B51153EC846500182D4454FB2119C0060B51153EC8465010
330
1013
 94
        0
1001
ACAD
1000
AcadProxyRoundTripData
1071
      587
1071
   393239
1070
     0
  0
ACAD_PROXY_OBJECT
  5
584B
330
0
100
AcDbProxyObject
 90
      499
 91
      615
 93
      194
310
0001404050C7266736655706174636865734290139C0C0002D
330
1013
 94
        0
1001
ACAD
1000
AcadProxyRoundTripData
1071
      589
1071
   393239
1070
     0
  0
ACAD_PROXY_OBJECT
  5
584C
330
0
100
AcDbProxyObject
 90
      499
 91
      615
 93
      194
310
0001404050C7266736656706174636865734290139C0C0002D
330
1013
 94
        0
1001
ACAD
1000
AcadProxyRoundTripData
1071
      589
1071
   393239
1070
     0
  0
ACAD_PROXY_OBJECT
  5
584D
330
0
100
AcDbProxyObject
 90
      499
 91
      615
 93
      246
310
000140C0508747562654D6F64650143E3BA24EB8A134A4817D3585B9D585B0
330
1013
 94
        0
1001
ACAD
1000
AcadProxyRoundTripData
1071
      588
1071
   393239
1070
     0
  0
ACAD_PROXY_OBJECT
  5
584E
330
0
100
AcDbProxyObject
 90
      499
 91
      615
 93
      274
310
0001408050C747562654469616D6574657242D431CEBE2361A3F0000003F20F5E5D055
330
1013
 94
        0
1001
ACAD
1000
AcadProxyRoundTripData
1071
      587
1071
   393239
1070
     0
  0
ACAD_PROXY_OBJECT
  5
584F
330
0
100
AcDbProxyObject
 90
      499
 91
      615
 93
      130
310
00014040509696E746572506F6C79A4057
330
1013
 94
        0
1001
ACAD
1000
AcadProxyRoundTripData
1071
      589
1071
   393239
1070
     0
  0
ACAD_PROXY_OBJECT
  5
5850
330
0
100
AcDbProxyObject
 90
      499
 91
      615
 93
      162
310
0001404050D696E746572417567506F696E74A405C
330
1013
 94
        0
1001
ACAD
1000
AcadProxyRoundTripData
1071
      589
1071
   393239
1070
     0
  0
ACAD_PROXY_OBJECT
  5
5851
330
0
100
AcDbProxyObject
 90
      499
 91
      615
 93
      238
310
000140C0509696E7465727472696D014365EF257ECA108A4817D09BDD1A3
330
1013
 94
        0
1001
ACAD
1000
AcadProxyRoundTripData
1071
      588
1071
   393239
1070
     0
  0
ACAD_PROXY_OBJECT
  5
5852
330
0
100
AcDbProxyObject
 90
      499
 91
      615
 93
      230
310
000140C0509696E7465727479706501433136344A150A4817D51C9A5B5
330
1013
 94
        0
1001
ACAD
1000
AcadProxyRoundTripData
1071
      588
1071
   393239
1070
     0
  0
ACAD_PROXY_OBJECT
  5
5853
330
0
100
AcDbProxyObject
 90
      499
 91
      615
 93
      146
310
0001404050A636F726E65727472696D4064063
330
1013
 94
        0
1001
ACAD
1000
AcadProxyRoundTripData
1071
      589
1071
   393239
1070
     0
  0
ACAD_PROXY_OBJECT
  5
5854
330
0
100
AcDbProxyObject
 90
      499
 91
      615
 93
      130
310
000140405086F6673666B6565704064046
330
1013
 94
        0
1001
ACAD
1000
AcadProxyRoundTripData
1071
      589
1071
   393239
1070
     0
  0
ACAD_PROXY_OBJECT
  5
5855
330
0
100
AcDbProxyObject
 90
      499
 91
      615
 93
      146
310
0001404050A70726F6A4F757470757440A40E3
330
1013
 94
        0
1001
ACAD
1000
AcadProxyRoundTripData
1071
      589
1071
   393239
1070
     0
  0
ACAD_PROXY_OBJECT
  5
5856
330
0
100
AcDbProxyObject
 90
      499
 91
      615
 93
      270
310
000140C050D70726F6A446972656374696F6E014372F7AB6C0A124A4817DD92595DC
330
1013
 94
        0
1001
ACAD
1000
AcadProxyRoundTripData
1071
      588
1071
   393239
1070
     0
  0
ACAD_PROXY_OBJECT
  5
5857
330
0
100
AcDbProxyObject
 90
      499
 91
      615
 93
      130
310
0001404050870726F6A4B6565704064040
330
1013
 94
        0
1001
ACAD
1000
AcadProxyRoundTripData
1071
      589
1071
   393239
1070
     0
  0
ACAD_PROXY_OBJECT
  5
5858
330
0
100
AcDbProxyObject
 90
      499
 91
      615
 93
      278
310
000140C050B70726F6A53706163696E670144237164D2CA13CA4817D3DC1D1A5B585B1
330
1013
 94
        0
1001
ACAD
1000
AcadProxyRoundTripData
1071
      588
1071
   393239
1070
     0
  0
ACAD_PROXY_OBJECT
  5
5859
330
0
100
AcDbProxyObject
 90
      499
 91
      615
 93
      250
310
0001408050970726F6A54617065728182D4454FB21F9BF060B51153EC87E4FC0
330
1013
 94
        0
1001
ACAD
1000
AcadProxyRoundTripData
1071
      587
1071
   393239
1070
     0
  0
ACAD_PROXY_OBJECT
  5
585A
330
0
100
AcDbProxyObject
 90
      499
 91
      615
 93
      130
310
00014040508647261674B6565704064070
330
1013
 94
        0
1001
ACAD
1000
AcadProxyRoundTripData
1071
      589
1071
   393239
1070
     0
  0
ACAD_PROXY_OBJECT
  5
585B
330
0
100
AcDbProxyObject
 90
      499
 91
      615
 93
      302
310
000140C050F647261674F7269656E746174696F6E0143E590243F0A138A4817D39BDC9B585B0
330
1013
 94
        0
1001
ACAD
1000
AcadProxyRoundTripData
1071
      588
1071
   393239
1070
     0
  0
ACAD_PROXY_OBJECT
  5
585C
330
0
100
AcDbProxyObject
 90
      499
 91
      615
 93
      286
310
000140C050E647261675472616E736974696F6E0143A3B6A4DE0A10CA4817DCD0D85B196
330
1013
 94
        0
1001
ACAD
1000
AcadProxyRoundTripData
1071
      588
1071
   393239
1070
     0
  0
ACAD_PROXY_OBJECT
  5
585D
330
0
100
AcDbProxyObject
 90
      499
 91
      615
 93
      318
310
000140C051061646A757374436F6E74696E7569747901442F746C2F778A14CA4817D4DB5BDBDD1A0
330
1013
 94
        0
1001
ACAD
1000
AcadProxyRoundTripData
1071
      588
1071
   393239
1070
     0
  0
ACAD_PROXY_OBJECT
  5
585E
330
0
100
AcDbProxyObject
 90
      499
 91
      615
 93
      138
310
0001404050A61646A7573744B656570A4056
330
1013
 94
        0
1001
ACAD
1000
AcadProxyRoundTripData
1071
      589
1071
   393239
1070
     0
  0
ACAD_PROXY_OBJECT
  5
585F
330
0
100
AcDbProxyObject
 90
      499
 91
      615
 93
      250
310
0001408050972756C65576964746842D431CEBE2361A3F0000003F20F5E5D064
330
1013
 94
        0
1001
ACAD
1000
AcadProxyRoundTripData
1071
      587
1071
   393239
1070
     0
  0
ACAD_PROXY_OBJECT
  5
5860
330
0
100
AcDbProxyObject
 90
      499
 91
      615
 93
      274
310
0001408050C616E616C797A65447261667421D139D28615ED8FE060B51153EC8425031
330
1013
 94
        0
1001
ACAD
1000
AcadProxyRoundTripData
1071
      587
1071
   393239
1070
     0
  0
ACAD_PROXY_OBJECT
  5
5861
330
0
100
AcDbProxyObject
 90
      499
 91
      615
 93
      210
310
0001404050F616E616C797A654E756D4C696E65734163FDFC0003F
330
1013
 94
        0
1001
ACAD
1000
AcadProxyRoundTripData
1071
      589
1071
   393239
1070
     0
  0
ACAD_PROXY_OBJECT
  5
5862
330
0
100
AcDbProxyObject
 90
      499
 91
      615
 93
      202
310
00014040512616E616C797A65526F746174654C696E6573A407E
330
1013
 94
        0
1001
ACAD
1000
AcadProxyRoundTripData
1071
      589
1071
   393239
1070
     0
  0
ACAD_PROXY_OBJECT
  5
5863
330
0
100
AcDbProxyObject
 90
      499
 91
      615
 93
      210
310
00014040513616E616C797A65446973706C61794C696E6573A407F
330
1013
 94
        0
1001
ACAD
1000
AcadProxyRoundTripData
1071
      589
1071
   393239
1070
     0
  0
ACAD_PROXY_OBJECT
  5
5864
330
0
100
AcDbProxyObject
 90
      499
 91
      615
 93
      258
310
00014040519616E616C797A655472616E736C7563656E7453757266616365A4042
330
1013
 94
        0
1001
ACAD
1000
AcadProxyRoundTripData
1071
      589
1071
   393239
1070
     0
  0
ACAD_PROXY_OBJECT
  5
586E
330
0
100
AcDbProxyObject
 90
      499
 91
      615
 93
      698
310
0001000000009AA6A9AA4051E576564204A756E2030392030383A33383A303620323030342028555443290141CD8B8CCB8C0B8C80518576564204A756E2030392031373A33393A353420323030340141CD8B8CCB8C0B8C80
330
1013
330
586F
330
5870
330
5872
330
0
 94
        0
1001
ACAD
1000
AcadProxyRoundTripData
1071
      595
1071
   393239
1070
     0
  0
ACAD_PROXY_OBJECT
  5
586F
330
0
100
AcDbProxyObject
 90
      499
 91
      615
 93
       70
310
0001AAA80820000000
330
1013
330
586F
330
586F
 94
        0
1001
ACAD
1000
AcadProxyRoundTripData
1071
      596
1071
   393239
1070
     0
  0
ACAD_PROXY_OBJECT
  5
5870
330
0
100
AcDbProxyObject
 90
      499
 91
      615
 93
       48
310
00010000000005
330
1013
330
0
330
5871
330
0
330
0
 94
        0
1001
ACAD
1000
AcadProxyRoundTripData
1071
      597
1071
   393239
1070
     0
  0
ACAD_PROXY_OBJECT
  5
5871
330
0
100
AcDbProxyObject
 90
      499
 91
      615
 93
       40
310
000100AAAA00
330
1013
330
0
 94
        0
1001
ACAD
1000
AcadProxyRoundTripData
1071
      598
1071
   393239
1070
     0
  0
ACAD_PROXY_OBJECT
  5
5873
330
0
100
AcDbProxyObject
 90
      499
 91
      615
 93
      124
310
00010142905350D3D39114D414D69050
330
1013
 94
        0
1001
ACAD
1000
AcadProxyRoundTripData
1071
      529
1071
   393239
1070
     0
  0
ACAD_PROXY_OBJECT
  5
5874
330
0
100
AcDbProxyObject
 90
      499
 91
      615
 93
      124
310
000101429053549553115353D1115010
330
1013
 94
        0
1001
ACAD
1000
AcadProxyRoundTripData
1071
      529
1071
   393239
1070
     0
  0
ACAD_PROXY_OBJECT
  5
5875
330
0
100
AcDbProxyObject
 90
      499
 91
      615
 93
      108
310
00010142105354D2D353D1115016
330
1013
 94
        0
1001
ACAD
1000
AcadProxyRoundTripData
1071
      529
1071
   393239
1070
     0
  0
ACAD_PROXY_OBJECT
  5
5876
330
0
100
AcDbProxyObject
 90
      499
 91
      615
 93
      140
310
000101435053511253511254D41353D11167
330
1013
 94
        0
1001
ACAD
1000
AcadProxyRoundTripData
1071
      529
1071
   393239
1070
     0
  0
ACAD_PROXY_OBJECT
  5
5877
330
0
100
AcDbProxyObject
 90
      499
 91
      615
 93
      180
310
00010142905354D2D05391D513D3000000000000010400
330
1013
 94
        0
1001
ACAD
1000
AcadProxyRoundTripData
1071
      528
1071
   393239
1070
     0
  0
ACAD_PROXY_OBJECT
  5
5878
330
0
100
AcDbProxyObject
 90
      499
 91
      615
 93
      164
310
00010142505354D2D4D516531140505434F4E542A3
330
1013
 94
        0
1001
ACAD
1000
AcadProxyRoundTripData
1071
      544
1071
   393239
1070
     0
  0
ACAD_PROXY_OBJECT
  5
5879
330
0
100
AcDbProxyObject
 90
      499
 91
      615
 93
      108
310
00010142105350D3511112535013
330
1013
 94
        0
1001
ACAD
1000
AcadProxyRoundTripData
1071
      529
1071
   393239
1070
     0
  0
ACAD_PROXY_OBJECT
  5
587A
330
0
100
AcDbProxyObject
 90
      499
 91
      615
 93
      108
310
00010142105350D3D35414D59010
330
1013
 94
        0
1001
ACAD
1000
AcadProxyRoundTripData
1071
      529
1071
   393239
1070
     0
  0
ACAD_PROXY_OBJECT
  5
587B
330
0
100
AcDbProxyObject
 90
      499
 91
      615
 93
      164
310
0001014290535410549514D4119600504CADFB0C21
330
1013
 94
        0
1001
ACAD
1000
AcadProxyRoundTripData
1071
      544
1071
   393239
1070
     0
  0
ACAD_PROXY_OBJECT
  5
587C
330
0
100
AcDbProxyObject
 90
      499
 91
      615
 93
      220
310
0001014350535513D3D31093D11654119600508C2B0D9CEDEC3DEA83
330
1013
 94
        0
1001
ACAD
1000
AcadProxyRoundTripData
1071
      544
1071
   393239
1070
     0
  0
ACAD_PROXY_OBJECT
  5
587D
330
0
100
AcDbProxyObject
 90
      499
 91
      615
 93
      116
310
000101425053511254D410D3D39010
330
1013
 94
        0
1001
ACAD
1000
AcadProxyRoundTripData
1071
      529
1071
   393239
1070
     0
  0
ACAD_PROXY_OBJECT
  5
587E
330
0
100
AcDbProxyObject
 90
      499
 91
      615
 93
      108
310
00010142105350D3D39114D41016
330
1013
 94
        0
1001
ACAD
1000
AcadProxyRoundTripData
1071
      529
1071
   393239
1070
     0
  0
ACAD_PROXY_OBJECT
  5
587F
330
0
100
AcDbProxyObject
 90
      499
 91
      615
 93
      124
310
0001014290535490511114D414D69190
330
1013
 94
        0
1001
ACAD
1000
AcadProxyRoundTripData
1071
      529
1071
   393239
1070
     0
  0
ACAD_PROXY_OBJECT
  5
5885
330
0
100
AcDbProxyObject
 90
      499
 91
      615
 93
      132
310
00010142D05050555513D4D3D315915010
330
1013
 94
        0
1001
ACAD
1000
AcadProxyRoundTripData
1071
      529
1071
   393239
1070
     0
  0
ACAD_PROXY_OBJECT
  5
5886
330
0
100
AcDbProxyObject
 90
      499
 91
      615
 93
      156
310
00010143905050555513D054D4D153509311501C
330
1013
 94
        0
1001
ACAD
1000
AcadProxyRoundTripData
1071
      529
1071
   393239
1070
     0
  0
ACAD_PROXY_OBJECT
  5
5887
330
0
100
AcDbProxyObject
 90
      499
 91
      615
 93
      148
310
00010143505055925155D49154D513D4915018
330
1013
 94
        0
1001
ACAD
1000
AcadProxyRoundTripData
1071
      529
1071
   393239
1070
     0
  0
ACAD_PROXY_OBJECT
  5
5888
330
0
100
AcDbProxyObject
 90
      499
 91
      615
 93
      124
310
00010142D050525394D15495105094E0
330
1013
 94
        0
1001
ACAD
1000
AcadProxyRoundTripData
1071
      529
1071
   393239
1070
     0
  0
ACAD_PROXY_OBJECT
  5
5889
330
0
100
AcDbProxyObject
 90
      499
 91
      615
 93
      148
310
00010143505054D0D153915554111055115018
330
1013
 94
        0
1001
ACAD
1000
AcadProxyRoundTripData
1071
      529
1071
   393239
1070
     0
  0
ACAD_PROXY_OBJECT
  5
588A
330
0
100
AcDbProxyObject
 90
      499
 91
      615
 93
      172
310
00010143105054D5509054D4D3541196005035355420
330
1013
 94
        0
1001
ACAD
1000
AcadProxyRoundTripData
1071
      544
1071
   393239
1070
     0
  0
ACAD_PROXY_OBJECT
  5
588B
330
0
100
AcDbProxyObject
 90
      499
 91
      615
 93
      172
310
00010142905054D0D15391541196005055343454E458
330
1013
 94
        0
1001
ACAD
1000
AcadProxyRoundTripData
1071
      544
1071
   393239
1070
     0
  0
ACAD_PROXY_OBJECT
  5
588C
330
0
100
AcDbProxyObject
 90
      499
 91
      615
 93
      148
310
00010143505350555513D313D0D2D4D0D39015
330
1013
 94
        0
1001
ACAD
1000
AcadProxyRoundTripData
1071
      529
1071
   393239
1070
     0
  0
ACAD_PROXY_OBJECT
  5
5891
330
0
100
AcDbProxyObject
 90
      499
 91
      615
 93
       32
310
00010000BB
330
1013
340
588E
330
5893
330
588E
 94
        0
1001
ACAD
1000
AcadProxyRoundTripData
1071
      604
1071
   393239
1070
     0
  0
ACAD_PROXY_OBJECT
  5
5892
330
0
100
AcDbProxyObject
 90
      499
 91
      615
 93
       18
310
0001B0
330
1013
 94
        0
1001
ACAD
1000
AcadProxyRoundTripData
1071
      605
1071
   393239
1070
     0
  0
ACAD_PROXY_OBJECT
  5
5893
330
0
100
AcDbProxyObject
 90
      499
 91
      615
 93
      175
310
0001014352104B4C4DCC0C2293E318241F5050055400
330
1013
330
5891
330
5892
 94
        0
1001
ACAD
1000
AcadProxyRoundTripData
1071
      606
1071
   393239
1070
     0
  0
ACAD_PROXY_OBJECT
  5
5894
330
0
100
AcDbProxyObject
 90
      499
 91
      615
 93
       40
310
000100AAAA00
330
1013
330
5893
 94
        0
1001
ACAD
1000
AcadProxyRoundTripData
1071
      607
1071
   393239
1070
     0
  0
ACAD_PROXY_OBJECT
  5
5895
330
0
100
AcDbProxyObject
 90
      499
 91
      615
 93
      108
310
0001901422000000000000AAAAA3
330
1013
330
5896
330
5896
330
5896
330
5896
330
5896
330
0
 94
        0
1001
ACAD
1000
AcadProxyRoundTripData
1071
      608
1071
   393239
1070
     0
  0
ACAD_PROXY_OBJECT
  5
5896
330
0
100
AcDbProxyObject
 90
      499
 91
      615
 93
       51
310
00010000AAAA90
330
1013
330
5895
330
5893
 94
        0
1001
ACAD
1000
AcadProxyRoundTripData
1071
      609
1071
   393239
1070
     0
  0
DICTIONARY
  5
1027
102
{ACAD_REACTORS
330
1026
102
}
330
1026
100
AcDbDictionary
  3
DWGSETTINGS
350
1028
  3
TRANSSETTINGS
350
1029
  0
ACAD_PROXY_OBJECT
  5
1032
102
{ACAD_REACTORS
330
1026
102
}
330
1026
100
AcDbProxyObject
 90
      499
 91
      615
 93
    12938
310
41102491013041105357CC1074CA404C504414D5F31439329013241105357CC9054CA404CD04414D5F33419199013441105357CD103466404D504414D5F3540D199013641105357CD90248E404DD04414D5F37411199013841105357CE101466404E504414D5F397F641102324141505357CC4C1074CA408D10505414D5F31
310
3140D19902495041505357CC4C9074C902408C13905414D5F304E41D32902314E41505357CC5390E4CA408C93905414D5F324E41532902334E41505357CCD3906466408D13905414D5F344E40D19902354E41505357CD53903466408D93905414D5F364E40923902374E41505357CDD3904466408E13905414D5F384E40519
310
902394E41505357CE539FD90440CC9053906414D5F31304E41D3290334414E41905357CC4C5390346640D25413906414D5F31324E41D32409044B4C494E41505357D0D3101465094112539193D08414D5F50415245464111942D055241484D3541905357D093D49074C9094115925155D08414D5F56494557534051942D064
310
24548494E4441905357D253959FD90D415514905253105414D5F545240D194250348494441905357D212511074650940D59254D06414D5F56495341D324250650415244494D42505357D410549112535034650941949151911253509414D5F52454644494D4111942553411092139590139CFFFFFFFF415092139594D06424
310
548494E44CFFFFFFFF411093D48C9055241484D3540519411093D48CD055241484D3540923411093D48D5055241484D35CFFFFFFFF4110D0530C90134CFFFFFFFF4110D0530CD0134409234110D0530D5013441D324110D0530DD0134479464110D1539390137CFFFFFFFF4110D15395D0137CFFFFFFFF4110D312539044B4
310
C494ECFFFFFFFF4110D3D38C50130CFFFFFFFF4110D3D38C90131CFFFFFFFF4110D3D38CD0132CFFFFFFFF4110D3D38D10132CFFFFFFFF411111551050134CFFFFFFFF4111125051D0135CFFFFFFFF411112531250135CFFFFFFFF411112535410650415244494DCFFFFFFFF411112535490652454644494DCFFFFFFFF4111
310
91535390138CFFFFFFFF4151915354139013840CFFFFFFFF4151915354D41023441CFFFFFFFF4151915354D5102344140D1941519153559390132CFFFFFFFF4151915355951013240D194112105510D0138CFFFFFFFF411212511390133CFFFFFFFF4112125115D0133CFFFFFFFF411213125390134CFFFFFFFF411213D0D3
310
90137CFFFFFFFF411213D0D5D0137CFFFFFFFF4112539193D04494E464FCFFFFFFFF411311505110135CFFFFFFFF419397D0921395902394ECFFFFFFFF419397D0D3D38C502304ECFFFFFFFF419397D0D3D38C902314ECFFFFFFFF419397D0D3D38CD02324ECFFFFFFFF419397D0D3D38D102324ECFFFFFFFF419397D0D153
310
93902374ECFFFFFFFF419397D0D15395D02374ECFFFFFFFF419397D1125312502354ECFFFFFFFF419397D2105510D02384ECFFFFFFFF419397D2125113902334ECFFFFFFFF419397D2125115D02334ECFFFFFFFF419397D3115051102354ECFFFFFFFF419397D391D25410349504ECFFFFFFFF419397D412105390334414EC
310
FFFFFFFF419397D510D3D3902304ECFFFFFFFF419397D5121312502344ECFFFFFFFF419397D5131153902304ECFFFFFFFF419397D594131250332414ECFFFFFFFF411391D2541024950CFFFFFFFF411410530C9055241484D3540519411410530CD055241484D3540923411410530D5055241484D35CFFFFFFFF4114121053
310
9023441CFFFFFFFF411413D4D390135CFFFFFFFF411490D1D390137CFFFFFFFF411490D1D5D0137CFFFFFFFF4114D09492D0134CFFFFFFFF4114D150D510134CFFFFFFFF4114D6508CD013540923411354D6535013540923411510D3D390130CFFFFFFFF411512131250134CFFFFFFFF411512550C9055241484D354051941
310
1512550CD055241484D3540923411512550D5055241484D35CFFFFFFFF411513115390130CFFFFFFFF415514905253105545241494CCFFFFFFFF411514931250134CFFFFFFFF411516150C5013640D19411516150C9013640D19411516150CD0136CFFFFFFFF411516150D5013641D32411516150DD0136479464115925155
310
D0456494557CFFFFFFFF4115915112103484944CFFFFFFFF4115915115903564953CFFFFFFFF41159413125023241CFFFFFFFF411692569050134CFFFFFFFFAA9FD404FE429014650248D0346504465054C906465074C90E4C91E519FD80
340
14
340
14
340
14
340
1033
340
14
340
14
340
14
340
1034
340
14
340
14
340
1034
340
1035
340
14
340
14
340
14
340
14
340
1033
340
14
340
14
340
14
340
1034
340
14
340
14
340
1034
340
1035
340
14
340
1036
340
14
340
14
340
14
340
14
340
14
340
1033
340
14
340
14
340
14
340
13
340
13
340
13
340
13
340
13
340
13
340
13
340
13
340
13
340
1037
340
13
340
13
340
13
340
13
340
13
340
13
340
13
340
13
340
13
340
13
340
13
340
13
340
13
340
14
340
13
340
13
340
13
340
13
340
1038
340
13
340
13
340
1037
340
13
340
13
340
13
340
13
340
13
340
13
340
13
340
13
340
1037
340
13
340
13
340
13
340
1038
340
13
340
13
340
13
340
13
340
13
340
13
340
13
340
13
340
13
340
13
340
13
340
13
340
13
340
13
340
1037
340
13
340
13
340
13
340
13
340
13
340
13
340
13
340
13
340
13
340
13
340
13
340
13
340
13
340
13
340
13
340
13
340
13
340
13
340
13
340
13
340
13
340
13
340
1039
 94
        0
1001
ACAD
1000
AcadProxyRoundTripData
1071
      546
1071
   393239
1070
     0
  0
ACAD_PROXY_OBJECT
  5
1060
102
{ACAD_REACTORS
330
105B
102
}
330
105B
100
AcDbProxyObject
 90
      499
 91
      615
 93
      253
310
43D1444494D454E53494F4E2C414D44545F2A5F44494D404A9012A404A9012AC
 94
        0
1001
ACAD
1000
AcadProxyRoundTripData
1071
      562
1071
   393239
1070
     0
  0
ACAD_PROXY_OBJECT
  5
105F
102
{ACAD_REACTORS
330
105B
102
}
330
105B
100
AcDbProxyObject
 90
      499
 91
      615
 93
      181
310
43D012A42D05357D191504B505357CA9012A404A9012AD
 94
        0
1001
ACAD
1000
AcadProxyRoundTripData
1071
      562
1071
   393239
1070
     0
  0
ACAD_PROXY_OBJECT
  5
105C
102
{ACAD_REACTORS
330
105B
102
}
330
105B
100
AcDbProxyObject
 90
      499
 91
      615
 93
      133
310
43D054841544348404A9012A404A9012AC
 94
        0
1001
ACAD
1000
AcadProxyRoundTripData
1071
      562
1071
   393239
1070
     0
  0
ACAD_PROXY_OBJECT
  5
105D
102
{ACAD_REACTORS
330
105B
102
}
330
105B
100
AcDbProxyObject
 90
      499
 91
      615
 93
      549
310
43D044C494E4549CE0B0E138B0A8B4E0B0A8B4E138B105357CE0B105357CE138B0A8B505357CE0B0A8B505357CE139012A404A910494E534552542C5354445041525432448
 94
        0
1001
ACAD
1000
AcadProxyRoundTripData
1071
      562
1071
   393239
1070
     0
  0
ACAD_PROXY_OBJECT
  5
1061
102
{ACAD_REACTORS
330
105B
102
}
330
105B
100
AcDbProxyObject
 90
      499
 91
      615
 93
      181
310
43D0341524341105357CD5012A404C906494E534552545
 94
        0
1001
ACAD
1000
AcadProxyRoundTripData
1071
      562
1071
   393239
1070
     0
  0
ACAD_PROXY_OBJECT
  5
105E
102
{ACAD_REACTORS
330
105B
102
}
330
105B
100
AcDbProxyObject
 90
      499
 91
      615
 93
     1053
310
43D7841434D46434652414D452C41434D444154554D5441524745542C41434D444154554D49442C41434D57454C4453594D2C41434D5355524653594D2C41434D4645415449442C41434D504152545245462C41434D42414C4C4F4F4E2C414D44544544474553594D2C414D47534352455743414C435441424C45404A9012A
310
404A9012AB
 94
        0
1001
ACAD
1000
AcadProxyRoundTripData
1071
      562
1071
   393239
1070
     0
  0
XRECORD
  5
58E6
102
{ACAD_REACTORS
330
58E5
102
}
330
58E5
100
AcDbXrecord
 90
        1
  0
XRECORD
  5
58E7
102
{ACAD_REACTORS
330
58E5
102
}
330
58E5
100
AcDbXrecord
 90
       70
  0
XRECORD
  5
58E8
102
{ACAD_REACTORS
330
58E5
102
}
330
58E5
100
AcDbXrecord
  1

  0
XRECORD
  5
58E9
102
{ACAD_REACTORS
330
58E5
102
}
330
58E5
100
AcDbXrecord
  1
aclt.ctb
  0
XRECORD
  5
58EA
102
{ACAD_REACTORS
330
58E5
102
}
330
58E5
100
AcDbXrecord
340
CC
  0
XRECORD
  5
58EB
102
{ACAD_REACTORS
330
58E5
102
}
330
58E5
100
AcDbXrecord
340
CD
  0
XRECORD
  5
58EC
102
{ACAD_REACTORS
330
58E5
102
}
330
58E5
100
AcDbXrecord
340
CA
  0
XRECORD
  5
58ED
102
{ACAD_REACTORS
330
58E5
102
}
330
58E5
100
AcDbXrecord
 90
    10781
  0
XRECORD
  5
58EE
102
{ACAD_REACTORS
330
58E5
102
}
330
58E5
100
AcDbXrecord
 90
        0
  0
XRECORD
  5
58EF
102
{ACAD_REACTORS
330
58E5
102
}
330
58E5
100
AcDbXrecord
 90
        0
  0
XRECORD
  5
58F0
102
{ACAD_REACTORS
330
58E5
102
}
330
58E5
100
AcDbXrecord
  1
{47B594C6-ADEF-11D3-A508-004005A036C4}
  0
XRECORD
  5
58F1
102
{ACAD_REACTORS
330
58E5
102
}
330
58E5
100
AcDbXrecord
  1
{05C2CD8C-813F-4DB2-9831-08E45EBA33EB}
  0
XRECORD
  5
58F2
102
{ACAD_REACTORS
330
58E5
102
}
330
58E5
100
AcDbXrecord
 40
0.0
  0
XRECORD
  5
58F3
102
{ACAD_REACTORS
330
58E5
102
}
330
58E5
100
AcDbXrecord
1000
DSTYLE
1002
{
1070
   289
 70
     1
1070
   341
340
49
1070
   343
340
49
1070
   344
340
49
1002
}
  0
XRECORD
  5
58F4
102
{ACAD_REACTORS
330
58E5
102
}
330
58E5
100
AcDbXrecord
340
0
  0
XRECORD
  5
58F5
102
{ACAD_REACTORS
330
58E5
102
}
330
58E5
100
AcDbXrecord
 70
     0
  0
XRECORD
  5
58F6
102
{ACAD_REACTORS
330
58E5
102
}
330
58E5
100
AcDbXrecord
340
0
  0
XRECORD
  5
58F7
102
{ACAD_REACTORS
330
58E5
102
}
330
58E5
100
AcDbXrecord
 10
0.0
 20
0.0
 30
0.0
  0
XRECORD
  5
58F8
102
{ACAD_REACTORS
330
58E5
102
}
330
58E5
100
AcDbXrecord
 10
0.0
 20
0.0
 30
0.0
  0
XRECORD
  5
58F9
102
{ACAD_REACTORS
330
58E5
102
}
330
58E5
100
AcDbXrecord
 10
0.0
 20
0.0
 30
0.0
  0
XRECORD
  5
58FA
102
{ACAD_REACTORS
330
58E5
102
}
330
58E5
100
AcDbXrecord
 10
0.0
 20
0.0
 30
0.0
  0
XRECORD
  5
58FB
102
{ACAD_REACTORS
330
58E5
102
}
330
58E5
100
AcDbXrecord
 10
0.0
 20
0.0
 30
0.0
  0
XRECORD
  5
58FC
102
{ACAD_REACTORS
330
58E5
102
}
330
58E5
100
AcDbXrecord
 10
0.0
 20
0.0
 30
0.0
  0
XRECORD
  5
58FD
102
{ACAD_REACTORS
330
58E5
102
}
330
58E5
100
AcDbXrecord
340
0
  0
XRECORD
  5
58FE
102
{ACAD_REACTORS
330
58E5
102
}
330
58E5
100
AcDbXrecord
 70
     0
  0
XRECORD
  5
58FF
102
{ACAD_REACTORS
330
58E5
102
}
330
58E5
100
AcDbXrecord
340
0
  0
XRECORD
  5
5900
102
{ACAD_REACTORS
330
58E5
102
}
330
58E5
100
AcDbXrecord
 10
0.0
 20
0.0
 30
0.0
  0
XRECORD
  5
5901
102
{ACAD_REACTORS
330
58E5
102
}
330
58E5
100
AcDbXrecord
 10
0.0
 20
0.0
 30
0.0
  0
XRECORD
  5
5902
102
{ACAD_REACTORS
330
58E5
102
}
330
58E5
100
AcDbXrecord
 10
0.0
 20
0.0
 30
0.0
  0
XRECORD
  5
5903
102
{ACAD_REACTORS
330
58E5
102
}
330
58E5
100
AcDbXrecord
 10
0.0
 20
0.0
 30
0.0
  0
XRECORD
  5
5904
102
{ACAD_REACTORS
330
58E5
102
}
330
58E5
100
AcDbXrecord
 10
0.0
 20
0.0
 30
0.0
  0
XRECORD
  5
5905
102
{ACAD_REACTORS
330
58E5
102
}
330
58E5
100
AcDbXrecord
 10
0.0
 20
0.0
 30
0.0
  0
LAYER_INDEX
  5
58CA
102
{ACAD_REACTORS
330
58C9
102
}
330
58C9
100
AcDbIndex
 40
2453168.563951932
100
AcDbLayerIndex
  8
0
360
58CB
 90
        1
  8
DEFPOINTS
360
58CC
 90
        0
  8
HASEN
360
58CD
 90
        0
  8
HATCH
360
58CE
 90
        0
  8
HOJO
360
58CF
 90
        2
  8
HOJOORG
360
58D0
 90
        0
  8
ITTEN
360
58D1
 90
        4
  8
JISSEN
360
58D2
 90
      385
  8
NITEN
360
58D3
 90
        0
  8
POINT
360
58D4
 90
        0
  8
SAISEN
360
58D5
 90
        0
  8
SUNPOU
360
58D6
 90
       19
  8
TENSEN
360
58D7
 90
        0
  8
TEXT
360
58D8
 90
       13
  8
WAKU
360
58D9
 90
        0
  8
氷出口(CS)
360
58DA
 90
        0
  8
SUNPOUT
360
58DB
 90
        0
  8
MODEL
360
58DC
 90
        3
  0
ACAD_PROXY_OBJECT
  5
102C
102
{ACAD_REACTORS
330
102B
102
}
330
102B
100
AcDbProxyObject
 90
      499
 91
      615
 93
      139
310
057356C1D5C406406AA8FFFFFFFF0AE64048
330
18
330
0
330
5893
 94
        0
1001
ACAD
1000
AcadProxyRoundTripData
1071
      543
1071
   393239
1070
     0
  0
ACAD_PROXY_OBJECT
  5
2A95
102
{ACAD_REACTORS
330
1030
102
}
330
1030
100
AcDbProxyObject
 90
      499
 91
      615
 93
     2109
310
570B81E85EB51B8BE3FD04414E5349405901409022E07A17AD46E2F8FD2208721C82C6DAA6EAE4CCA8CAF0E8A6E8C88120284A0B1B6A321A329BA3220480A1A82C6DAAECAD8C8D2DCCEA6E8C8812028420B1B6A4B229BA3220480A1682C6DA88C2E8EADAA6E8C88120284A0B1B6A127A6A9BA3220480A2082DAC8E888CAE8C
310
2D2D8A6F2DAA6E8C88120288A0B6B23A29B2B1BA34B7B729BCB6A9BA3220480A2282DAC8E886CADCE8CAE498D2DCCAA6E8C88120285A0B6B23A2737BA32A9BA3220480A1682C682DACE98C2F2A6E8C88120285A0B1A0B6B3A234B6A9BA3220480A2282C682DACE90DED8CA86D0C2E4E8A6E8C88120286A0B1A0B6B3AA34BA3
310
632A9BA3220480A02810
340
2959
360
2A96
360
2A97
360
2A98
360
2A99
360
2A9A
360
2A9B
360
2A9C
360
2A9D
360
2A9E
360
2A9F
360
2AA0
360
2AA1
360
2AA2
360
2AA3
 94
        0
1001
ACAD
1000
AcadProxyRoundTripData
1071
      566
1071
   393239
1070
     0
  0
ACAD_PROXY_OBJECT
  5
1031
102
{ACAD_REACTORS
330
1030
102
}
330
1030
100
AcDbProxyObject
 90
      499
 91
      615
 93
     2211
310
5700000000000000C40D0349534F405901409020000000000000310322287A1682DAC8E88AC8CECAA6E8C8812028720B1B6A9BAB9332A32BC3A29BA3220480A1282C6DA8C868CA6E8C88120286A0B1B6ABB2B63234B733A9BA3220480A1082C6DA92C8A6E8C88120285A0B1B6A230BA3AB6A9BA3220480A1282C6DA849E9AA
310
6E8C8812028820B6B23A2232BA30B4B629BCB6A9BA3220480A2282DAC8E8A6CAC6E8D2DEDCA6F2DAA6E8C88120288A0B6B23A21B2B73A32B92634B732A9BA3220480A1682DAC8E89CDEE8CAA6E8C88120285A0B1A0B6B3A630BCA9BA3220480A1682C682DACE88D2DAA6E8C88120288A0B1A0B6B3A437B632A1B430B93A29B
310
A3220480A1A82C682DACEA8D2E8D8CAA6E8C8812032040
340
103A
360
103B
360
103C
360
103D
360
103E
360
103F
360
1040
360
1041
360
1042
360
1043
360
1044
360
1045
360
104B
360
104C
360
1058
360
1059
 94
        0
1001
ACAD
1000
AcadProxyRoundTripData
1071
      545
1071
   393239
1070
     0
  0
ACAD_PROXY_OBJECT
  5
1028
102
{ACAD_REACTORS
330
1027
102
}
330
1027
100
AcDbProxyObject
 90
      499
 91
      615
 93
     2396
310
4050B44574753455454494E4753A1286829C8E82A4A482B282A106660F8686AF86C608321A2A720A723A0A849A1ABE1C983E18999AA0C868A9C889282940000000000000488083A1A2A72224A0A9A0A8418983E19183E199820E868A9C8892A6A894000000000000010808321A2A72622A7250000000000000122020C868A9
310
C9E8C8C940000000000000488084A1A624A720A92920ACA0A8418983E19183E19982108698929C8AA8B2A082A0AB098929C8A84A22BA3AAA9A1A0A622A50A0E9882A6A89E849482A02608426A0A5A2AB24A2ABA7E8120CA0A68682988A0C00800010652455649534941501304154D0D0531150540CC4E8D50954494D455354
310
414D504A024E9C712BA1C734141D5915494D253D3905414C4D4B8C0C1107B44574753455454494E4753454E447D0
 94
        0
1001
ACAD
1000
AcadProxyRoundTripData
1071
      541
1071
   393239
1070
     0
  0
ACAD_PROXY_OBJECT
  5
1029
102
{ACAD_REACTORS
330
1027
102
}
330
1027
100
AcDbProxyObject
 90
      499
 91
      615
 93
      852
310
4050D5452414E5353455454494E4753A2488A482AE929C8EA8A4829CA69882A8929E9C0C00800050D4F524947494E414C4C595F4F4E0600400008529A7AAA921A2A620A723A0A81A52827212AAA0A48AA68AA4AC8A0C0080001107B44574753455454494E4753454E447D8
 94
        0
1001
ACAD
1000
AcadProxyRoundTripData
1071
      541
1071
   393239
1070
     0
  0
IDBUFFER
  5
58CB
330
0
100
AcDbIdBuffer
330
D4E
  0
IDBUFFER
  5
58CC
330
0
100
AcDbIdBuffer
  0
IDBUFFER
  5
58CD
330
0
100
AcDbIdBuffer
  0
IDBUFFER
  5
58CE
330
0
100
AcDbIdBuffer
  0
IDBUFFER
  5
58CF
330
0
100
AcDbIdBuffer
330
76A
330
1C8B
  0
IDBUFFER
  5
58D0
330
0
100
AcDbIdBuffer
  0
IDBUFFER
  5
58D1
330
0
100
AcDbIdBuffer
330
5472
330
5473
330
5474
330
5587
  0
IDBUFFER
  5
58D2
330
0
100
AcDbIdBuffer
330
5586
330
5588
330
5589
330
558A
330
558B
330
558D
330
558E
330
558F
330
5592
330
5593
330
5594
330
5595
330
5596
330
5597
330
5598
330
559A
330
559B
330
559D
330
559E
330
559F
330
55A0
330
55A1
330
55A2
330
55A3
330
55A4
330
55A5
330
55A6
330
55A7
330
55A8
330
55AC
330
55AD
330
55AE
330
55AF
330
55BB
330
55C0
330
55C1
330
55C2
330
55C3
330
55C4
330
55C5
330
55C6
330
55C7
330
55C8
330
55CB
330
55CC
330
55CD
330
55CE
330
55CF
330
55D0
330
55D1
330
55D2
330
55D3
330
55D4
330
55D5
330
55D6
330
55D7
330
55D8
330
55D9
330
55DA
330
55DB
330
55DC
330
55DD
330
55DE
330
55DF
330
55E0
330
55E1
330
55E2
330
55E3
330
55E4
330
55E5
330
55E6
330
55E7
330
55E8
330
55E9
330
55EA
330
55EB
330
55EC
330
55ED
330
55EE
330
55F0
330
55F1
330
55F2
330
55F3
330
55F4
330
55F5
330
55F6
330
55F7
330
55F8
330
55F9
330
55FA
330
55FB
330
55FC
330
55FD
330
55FE
330
55FF
330
5600
330
5601
330
5602
330
5604
330
5605
330
5606
330
5607
330
5608
330
560F
330
5610
330
5611
330
5612
330
5613
330
5614
330
5615
330
5616
330
5617
330
5618
330
5619
330
561A
330
561B
330
561C
330
561D
330
561E
330
561F
330
5620
330
5621
330
5622
330
5623
330
5624
330
5625
330
5626
330
5627
330
5628
330
5629
330
562A
330
562B
330
562C
330
5645
330
5647
330
5648
330
5649
330
564A
330
564B
330
564C
330
564D
330
564E
330
564F
330
5650
330
5651
330
517C
330
517D
330
5475
330
5476
330
5477
330
5478
330
5479
330
547A
330
547B
330
547C
330
547D
330
547E
330
5480
330
5481
330
5482
330
5483
330
5484
330
5485
330
5486
330
5487
330
5488
330
548D
330
5490
330
5491
330
5492
330
5493
330
5494
330
5495
330
5496
330
5498
330
5499
330
549B
330
549C
330
549D
330
549E
330
54A1
330
54A2
330
54A3
330
54A4
330
54A5
330
54A6
330
54A7
330
54A8
330
54A9
330
54AA
330
54AB
330
54AC
330
54AD
330
54AE
330
54AF
330
54B0
330
54B1
330
54B2
330
54B4
330
54B5
330
54B6
330
54B9
330
54BE
330
54BF
330
54C0
330
54C1
330
54C2
330
54C3
330
54C4
330
54C5
330
54C6
330
54C7
330
54C8
330
54C9
330
54CA
330
54CB
330
54CC
330
54CD
330
54CE
330
54CF
330
54D0
330
54D1
330
54D2
330
54D3
330
54D4
330
54D5
330
54D7
330
54D8
330
54D9
330
54DA
330
54DB
330
54DC
330
54DD
330
54DE
330
54DF
330
54E0
330
54E1
330
54E2
330
54E3
330
54E4
330
54E5
330
54E6
330
54E7
330
54E8
330
54E9
330
54EA
330
54EB
330
54EC
330
54ED
330
54EE
330
54EF
330
54F0
330
54F1
330
54F2
330
54F3
330
54F4
330
54F5
330
54F6
330
54F7
330
54F8
330
54FE
330
54FF
330
5500
330
5501
330
5502
330
5503
330
5504
330
5505
330
5506
330
5507
330
5508
330
550E
330
550F
330
5510
330
5511
330
5512
330
5513
330
5514
330
5515
330
5516
330
5517
330
5518
330
551E
330
551F
330
5520
330
5521
330
5522
330
5523
330
5524
330
5525
330
5526
330
5527
330
5528
330
5529
330
552A
330
552B
330
552C
330
552D
330
552E
330
552F
330
5530
330
5531
330
5532
330
5533
330
5534
330
5535
330
5536
330
5537
330
5538
330
5539
330
553A
330
553B
330
553C
330
553D
330
553E
330
553F
330
5540
330
5541
330
5542
330
5543
330
5544
330
5545
330
5546
330
5547
330
5548
330
5549
330
554A
330
554B
330
554C
330
554D
330
554E
330
554F
330
5550
330
5551
330
5552
330
5553
330
5554
330
5555
330
5556
330
5557
330
5558
330
5559
330
555A
330
555B
330
555C
330
555D
330
555E
330
555F
330
5560
330
5561
330
5562
330
5563
330
5564
330
5565
330
5566
330
5567
330
5568
330
5569
330
556A
330
556C
330
556D
330
556E
330
556F
330
5570
330
5571
330
5572
330
5573
330
5574
330
5575
330
5576
330
5577
330
5578
330
5579
330
557A
330
557B
330
557C
330
557D
330
557E
330
557F
330
5580
330
5581
330
5582
330
5583
330
5584
330
5585
  0
IDBUFFER
  5
58D3
330
0
100
AcDbIdBuffer
  0
IDBUFFER
  5
58D4
330
0
100
AcDbIdBuffer
  0
IDBUFFER
  5
58D5
330
0
100
AcDbIdBuffer
  0
IDBUFFER
  5
58D6
330
0
100
AcDbIdBuffer
330
56FD
330
570A
330
58A4
330
B42
330
B43
330
C35
330
C38
330
C39
330
2521
330
565F
330
566C
330
5679
330
5686
330
5693
330
56AD
330
56C7
330
56D4
330
56E1
330
56F0
  0
IDBUFFER
  5
58D7
330
0
100
AcDbIdBuffer
  0
IDBUFFER
  5
58D8
330
0
100
AcDbIdBuffer
330
763
330
764
330
765
330
766
330
767
330
768
330
7B6
330
7B7
330
C2F
330
C30
330
C31
330
C32
330
C37
  0
IDBUFFER
  5
58D9
330
0
100
AcDbIdBuffer
  0
IDBUFFER
  5
58DA
330
0
100
AcDbIdBuffer
  0
IDBUFFER
  5
58DB
330
0
100
AcDbIdBuffer
  0
IDBUFFER
  5
58DC
330
0
100
AcDbIdBuffer
330
54D6
330
556B
330
55EF
  0
ACAD_PROXY_OBJECT
  5
2A96
330
2A95
100
AcDbProxyObject
 90
      499
 91
      615
 93
       96
310
57020E80A0280A0280A0280800
 94
        0
1001
ACAD
1000
AcadProxyRoundTripData
1071
      567
1071
   393239
1070
     0
  0
ACAD_PROXY_OBJECT
  5
2A97
330
2A95
100
AcDbProxyObject
 90
      499
 91
      615
 93
      332
310
5710E405014050140501405014050140501405014250140501405014050140501200000000000000040A
340
295A
 94
        0
1001
ACAD
1000
AcadProxyRoundTripData
1071
      568
1071
   393239
1070
     0
  0
ACAD_PROXY_OBJECT
  5
2A98
330
2A95
100
AcDbProxyObject
 90
      499
 91
      615
 93
      402
310
570C199999999999E99F91F4050140501405014050140501405014050140501405014050140501405014050140501405014070
340
0
 94
        0
1001
ACAD
1000
AcadProxyRoundTripData
1071
      569
1071
   393239
1070
     0
  0
ACAD_PROXY_OBJECT
  5
2A99
330
2A95
100
AcDbProxyObject
 90
      499
 91
      615
 93
       10
310
5701
 94
        0
1001
ACAD
1000
AcadProxyRoundTripData
1071
      570
1071
   393239
1070
     0
  0
ACAD_PROXY_OBJECT
  5
2A9A
330
2A95
100
AcDbProxyObject
 90
      499
 91
      615
 93
      223
310
572290EA22A7D90F49F9353333333333727F44D4CCCCCCCCCDC9FA05
340
2956
340
2957
 94
        0
1001
ACAD
1000
AcadProxyRoundTripData
1071
      571
1071
   393239
1070
     0
  0
ACAD_PROXY_OBJECT
  5
2A9B
330
2A95
100
AcDbProxyObject
 90
      499
 91
      615
 93
    12257
310
5710E411255115350141236025B6901405014069011349A4F2590CB64FD3347454E545241434F2C4A504E2C302C8D8096DA2C47454E54524154582C25732C2847454E4D53472067656E647767203232322940690120281A8AA2CA0282484A4BE52028120280A03202269349E4B2196C9FA668E8A9CA8A482869E5894A09C58
310
605921292F94588E8A9CA8A482A8B0584AE658508E8A9C9AA68E40CECADCC8EECE406464665280D202405044E414D454050496BC914F4051C40640A8BA5C2E97CBE502404CD1D15395149050D3CB1294138B0C0B25AF2453CB11D15395149055160B095CCB0A11D1539354D1C819D95B991DD9C80C8C8D8A50190B3D424C4F
310
434B3A4E414D4540480A0A888AA686A480A0921C12D7C80A3A80C81D10782C06030180C8099A3A2A72A2920A1A79625282716181648704B5F1623A2A72A2920AA2C1612B9961423A2A726A9A39033B2B7323BB39019189B94A024809014214D51053911054911014122D2E29A50147501904A383BFDFEFF5FBFCFD3347454E
310
545241434F2C4A504E2C302C8B4B8A692C47454E54524154582C25732C2847454E4D53472067656E64776720323138294049012028426A0AA22A924A0A62028246EF4BDFA028EA0320B41416D838E9017D9FA668E8A9CA8A482869E5894A09C5860591BBD2F7E588E8A9CA8A482A8B0584AE658508E8A9C9AA68E40CECADCC
310
8EECE406464625280D202405044E4F544540504928D8B4C4051D40641A8BA5C2E97CBE5F23F4CD1D15395149050D3CB1294138B0C0B24A362D30B11D15395149055160B095CCB0A11D1539354D1C819D95B991DD9C80C8C8D4A501A40480A0CAC8A9C889EA480A0D9BBDBB81BD6080A3A80C83D174B85D2F97CBE47E9AA3A2
310
A72A2920A1A79625282716181666EF6EE06F581623A2A72A2920AA2C1612B9961423A2A726A9A39033B2B7323BB39019191A14A0348090141911154D0D48C90141A43825AF880C90147501908A20F0580C0603019013447454E545241434F2C4A504E2C302C90E096BE20322C47454E54524154582C25732C2847454E4D534
310
72067656E6477672033362940490120284A9AA20A72220A922192028345A5C53490192028EA0321347077FBFDFEBF7F9FA6A8E8A9CA8A482869E5894A09C586059169714D24064588E8A9CA8A482A8B0584AE658508E8A9C9AA68E40CECADCC8EECE4064646052809202405094D4154455249414C32405068DDE97BF203240
310
51D40642A8282DB071D202FB3F4D11D15395149050D3CB1294138B0C0B2377A5EFC80C8B11D15395149055160B095CCB0A11D1539354D1C819D95B991DD9C80D0C0A501240480A089A82A6A680A091D7F2F9480A3A80A0485A0681174B85D2F97CBE47E9923A2A72A2920A1A796252827161816475FCBE51623A2A72A2920A
310
A2C1612B9961423A2A726A9A39033B2B7323BB3901A1914A024809014154149250D150141226FE29A501475014090C409022E970BA5F2F97C8FD3247454E545241434F2C4A504E2C302C89BF8A692C47454E54524154582C25732C2847454E4D53472067656E6477672034332940490120281A224A6A02824850CB202028EA
310
028121A81A045D2E174BE5F2F91FA648E8A9CA8A482869E5894A09C58605921432C80588E8A9CA8A482A8B0584AE658508E8A9C9AA68E40CECADCC8EECE406868528092024050E441022E07A17AD46E338FD1E004062B355AAD56AB7D8FCACD56AB55AADF63F41CF4F125511534F9014062B355AAD56AB7D8FCACD56AB55AA
310
DF63F41CF4F125511534F9014062431F8FC5E0F3B8FC90C7E3F1783CEE3F41CF4F125511534F9014062431F8FC5E0F3B8FC90C7E3F1783CEE3F41CF4F125511534F90140A404ACD56AB55AADF63F2B355AAD56AB7D8FD073D3C4954454D3E405063D3C5154593E405018ACD56AB55AADF63F2B355AAD56AB7D8FD073D3C495
310
4454D3E40640400ACD56AB55AADF63F2B355AAD56AB7D8FE8800000000000002081A0881A068120480A032208521122080D21480D211480A1485214852050000000000003C2FC000000000000F0BF4050241C3BDF4F8D976EA23F0EF7D3E365DBA88FCB81E85EB51B8BE3FC80D069014090541D06901A5C0F42F5A8DC5F1FA
310
0483A048098A028080
340
0
340
0
 94
        0
1001
ACAD
1000
AcadProxyRoundTripData
1071
      572
1071
   393239
1070
     0
  0
ACAD_PROXY_OBJECT
  5
2A9C
330
2A95
100
AcDbProxyObject
 90
      499
 91
      615
 93
      960
310
5700B81E85EB51B8CE3F4BCF511155105253080F11115510525317D3105091530F971414D0D05311480F11115510525317D05094D4D0D053114F92341C9A9999999999B93F26A666666666724FC000000000000E03F40000000000000040000000000000051000000000000002440478B81E85EB51B8CE3F00
340
2952
340
2959
 94
        0
1001
ACAD
1000
AcadProxyRoundTripData
1071
      573
1071
   393239
1070
     0
  0
ACAD_PROXY_OBJECT
  5
2A9D
330
2A95
100
AcDbProxyObject
 90
      499
 91
      615
 93
      745
310
570031703D0BD6A3719C7E999EA9A2A1AA24A7A7101E29A2A1AA24A7A72FA620A122A62FA324A929AA1F169E29A2A1AA24A7A72FA620A122A62FA620A9AA1F1353333333333B27EFF41C8823C4D4CCCCCCCCCEC9FC5C0F42F5A8DC671F84
340
2952
340
2959
 94
        0
1001
ACAD
1000
AcadProxyRoundTripData
1071
      574
1071
   393239
1070
     0
  0
ACAD_PROXY_OBJECT
  5
2A9E
330
2A95
100
AcDbProxyObject
 90
      499
 91
      615
 93
      279
310
5702B8716D9CEF7C33F0A5723F0BD4A2F0FC295C8FC2F528BC3FA199999999999F99FC
 94
        0
1001
ACAD
1000
AcadProxyRoundTripData
1071
      575
1071
   393239
1070
     0
  0
ACAD_PROXY_OBJECT
  5
2A9F
330
2A95
100
AcDbProxyObject
 90
      499
 91
      615
 93
     6546
310
571084050B90142A4050240509C3DDCCDFDAB0C4203140405013D3C696628657175616C28486F6C653A7461707065642C223022292C22252563222C486F6C653A6E6F6D696E616C2022202220696628657175616C28486F6C653A756E6974732C223122292C2278222C222D222920222022293E3C696628657175616C28486
310
F6C653A7461707065642C223022292C486F6C653A6469612C486F6C653A706974636864657363293E207B5C46414D4744543B787D203C696628657175616C28486F6C653A7465726D696E6174696F6E2C223022292C486F6C653A64657074682C228AD192CA22293E5C507B5C46414D4744543B767D2525633C486F6C653A6
310
3746469613E207B5C46414D4744543B787D203C486F6C653A637464657074683E4064050340509C3DDCCDFDAB0C42031405FE3D3C696628657175616C28486F6C653A7461707065642C223022292C22252563222C486F6C653A6E6F6D696E616C2022202220696628657175616C28486F6C653A756E6974732C223122292C2
310
278222C222D222920222022293E3C696628657175616C28486F6C653A7461707065642C223022292C486F6C653A6469612C486F6C653A706974636864657363293E207B5C46414D4744543B787D203C696628657175616C28486F6C653A7465726D696E6174696F6E2C223022292C486F6C653A64657074682C228AD192CA2
310
2293E5C507B5C46414D4744543B777D2525633C486F6C653A63746469613E2058203C486F6C653A6374616E676C653E2525644064050140509C3DDCCDFDAB0C42031405CF3D3C696628657175616C28486F6C653A7461707065642C223022292C22252563222C486F6C653A6E6F6D696E616C2022202220696628657175616
310
C28486F6C653A756E6974732C223122292C2278222C222D222920222022293E3C696628657175616C28486F6C653A7461707065642C223022292C486F6C653A6469612C486F6C653A706974636864657363293E5C507B5C46414D4744543B787D203C696628657175616C28486F6C653A7465726D696E6174696F6E2C22302
310
2292C486F6C653A64657074682C228AD192CA22293E4064051E40509C3DDCCDFDAB0C420314050C3D3C535444503A444553433E40640515A86
 94
        0
1001
ACAD
1000
AcadProxyRoundTripData
1071
      576
1071
   393239
1070
     0
  0
ACAD_PROXY_OBJECT
  5
2AA0
330
2A95
100
AcDbProxyObject
 90
      499
 91
      615
 93
       20
310
571018
340
0
 94
        0
1001
ACAD
1000
AcadProxyRoundTripData
1071
      558
1071
   393239
1070
     0
  0
ACAD_PROXY_OBJECT
  5
2AA1
330
2A95
100
AcDbProxyObject
 90
      499
 91
      615
 93
      258
310
57102000000000000380FC000000000000E03F408F0F9023C3E40DB18CCCFFFF97
340
295C
340
0
340
0
340
295D
340
295E
340
0
340
295F
340
2960
340
2961
340
0
 94
        0
1001
ACAD
1000
AcadProxyRoundTripData
1071
      559
1071
   393239
1070
     0
  0
ACAD_PROXY_OBJECT
  5
2AA2
330
2A95
100
AcDbProxyObject
 90
      499
 91
      615
 93
    12785
310
5711A023FFFFFFFD010300002E07A17AD46E2F8FC09010300002E07A17AD46E2F8FC0805098DC0955782CCD8BDC4014E11D15395149050D3CB1294138B0C0B23702555E0B3362F710B11D15395149055160B095CCB0A11D1539354D1C819D95B991A5B5E880CCC0A78000C000000000000000000000000000000007B14AE47
310
E17AA43F2E07A17AD46E2F8FD021EC52B91F85EA90FCB81E85EB51B8BE3F40A0141E322B0EC3337B64053647454E545241434F2C4A504E2C302C8C8AC3B0CCDED92C47454E54524154582C25732C2847454E4D53472067656E64696D7A20333129E0003000000000000000000000000000000001EC52B91F85EA90FCB81E85
310
EB51B8BE3F4087B14AE47E17AA43F2E07A17AD46E2F8FD0290B4410F4450240D04415014391244D05449074510C4350F000141232D24D7C053247454E545241434F2C4A504E2C302C8CB4935F2C47454E54524154582C25732C2847454E4D53472067656E64696D7A20312900010105002214000282465A49AF80A648E8A9C
310
A8A482869E5894A09C586059196926BE588E8A9CA8A482A8B0584AE658508E8A9C9AA68E40CECADCC8D2DAF4406252000202080043E80005028C8A014C11D15395149050D3CB1294138B0C0B23228B11D15395149055160B095CCB0A11D1539354D1C819D95B991A5B5E880C8A405163D3C486F6C654974656D3E3C486F6C6
310
5496E6465783E010104002234000280AC00A5E8E8A9CA8A482869E5894A09C586058B0588E8A9CA8A482A8B0584AE658508E8A9C9AA68E40CECADCC8D2DAF4406652000202000040A800050159014BD1D15395149050D3CB1294138B0C0B164B11D15395149055160B095CCB0A11D1539354D1C819D95B991A5B5E880D0A40
310
00404000081D0000A02A40297A3A2A72A2920A1A796252827161816291623A2A72A2920AA2C1612B9961423A2A726A9A39033B2B73234B6BD101B148000808000104A000140A0F4C053047454E545241434F2C4A504E2C302C83D32C47454E54524154582C25732C2847454E4D53472067656E64696D7A2037290001010300
310
20B400028246C04B6D00A668E8A9CA8A482869E5894A09C5860591B012DB4588E8A9CA8A482A8B0584AE658508E8A9C9AA68E40CECADCC8D2DAF4406268520002020A004068000507B2DDC3DEAFB8BD014D91D15395149050D3CB1294138B0C0B2CB770F7ABEE2F4B11D15395149055160B095CCB0A11D1539354D1C819D95
310
B991A5B5E880C4D4A400040414008750000A0519140298A3A2A72A2920A1A79625282716181646451623A2A72A2920AA2C1612B9961423A2A726A9A39033B2B73234B6BD10189B148000808200112A0001426322ACB770F7ABEE2F4053847454E545241434F2C4A504E2C302C8C8AB2DDC3DEAFB8BD2C47454E54524154582
310
C25732C2847454E4D53472067656E64696D7A203137290001010500227400028141E980A608E8A9CA8A482869E5894A09C58605907A6588E8A9CA8A482A8B0584AE658508E8A9C9AA68E40CECADCC8D2DAF4407052000202020041E8000504909497CA014CD1D15395149050D3CB1294138B0C0B242525F28B11D153951490
310
55160B095CCB0A11D1539354D1C819D95B991A5B5E880C4E4A400040418008A50000A0921C12D7C0299A3A2A72A2920A1A79625282716181648704B5F1623A2A72A2920AA2C1612B9961423A2A726A9A39033B2B73234B6BD10191814800080020010CA00014122D2E29A4053347454E545241434F2C4A504E2C302C8B4B8A
310
692C47454E54524154582C25732C2847454E4D53472067656E64696D7A20323129000100040021B4878030026A6666666667A4FE064D4CCCCCCCCCF49FC049A9999999999E93F809353333333333D27F0226A6666666667A4FE044D4CCCCCCCCCF49FC009A9999999999D93F801353333333333D27F0026A6666666667A4FE
310
004D4CCCCCCCCCF49FC0D819703D0BD6A371BC7F03000000000000001020633B333333333032050F006004D4CCCCCCCCCF49FC0C9A9999999999E93F819353333333333D27F0326A6666666667A4FE064D4CCCCCCCCCF49FC0C9A9999999999E93F801353333333333B27F0026A6666666667A4FE064D4CCCCCCCCCF49FC00
310
9A9999999999E93F81B032E07A17AD46E378FE06000000000000002040C6766666666660640A088800000021E000000890000002260000008220E000200890000002060002008100008000
340
0
340
0
340
0
340
0
 94
        0
1001
ACAD
1000
AcadProxyRoundTripData
1071
      577
1071
   393239
1070
     0
  0
ACAD_PROXY_OBJECT
  5
2AA3
330
2A95
100
AcDbProxyObject
 90
      499
 91
      615
 93
     5022
310
5719741105394D2506414E53495F4342905394D257D512551554D15414E53495F54525F5265766973696F6E6C697374614191143202831372E307832322E30696E63682941905394D257D0D1146202832382E307834302E30696E63682941905394D257D191142202831312E307831372E30696E63682941905394D257D091
310
144202832322E307833342E30696E63682941905394D257D111145202833342E307834342E30696E63682941905394D257D1510412028382E357831312E30696E63682941905394D257D050543905B9CDA482557247A25E4C81110D0C414E53495F5449544C45444343505B9CDA482557247A25E4C81050B414E53495F5449
310
544C454143905B9CDA482557247A25E4C81050D0C414E53495F5449544C454143425554C82557247A25E4D0A414E53495F544954555343505B9CDA482557247A25E4C81110B414E53495F5449544C45444210D979A97F0D8BDC420415F42525F45505394D257D09497D4995D9A5CDA5BDB9B1A5CDD1850D979A97F0D8BDC42
310
0415F54525F45505394D257D51497D4995D9A5CDA5BDB9B1A5CDD1850D979A97F0D8BDC420445F42525F45505394D257D09497D4995D9A5CDA5BDB9B1A5CDD1910D979A97F0D8BDC420445F54525F45505394D257D51497D4995D9A5CDA5BDB9B1A5CDD1910D979A97F0D8BDC420415F424C5F45505394D257D09317D4995D
310
9A5CDA5BDB9B1A5CDD1850D979A97F0D8BDC420415F544C5F45505394D257D51317D4995D9A5CDA5BDB9B1A5CDD1850D979A97F0D8BDC420445F424C5F45505394D257D09317D4995D9A5CDA5BDB9B1A5CDD1910D979A97F0D8BDC420445F544C5F45505394D257D51317D4995D9A5CDA5BDB9B1A5CDD192
 94
        0
1001
ACAD
1000
AcadProxyRoundTripData
1071
      561
1071
   393239
1070
     0
  0
ACAD_PROXY_OBJECT
  5
103B
330
1031
100
AcDbProxyObject
 90
      499
 91
      615
 93
       12
310
5710
 94
        0
1001
ACAD
1000
AcadProxyRoundTripData
1071
      547
1071
   393239
1070
     0
  0
ACAD_PROXY_OBJECT
  5
103C
330
1031
100
AcDbProxyObject
 90
      499
 91
      615
 93
       96
310
572A0E80A0280A0280A0280F00
 94
        0
1001
ACAD
1000
AcadProxyRoundTripData
1071
      548
1071
   393239
1070
     0
  0
ACAD_PROXY_OBJECT
  5
103D
330
1031
100
AcDbProxyObject
 90
      499
 91
      615
 93
      272
310
5710E4050140501405014050140501405014050140D01405012C000000000000004000
340
1046
 94
        0
1001
ACAD
1000
AcadProxyRoundTripData
1071
      549
1071
   393239
1070
     0
  0
ACAD_PROXY_OBJECT
  5
103E
330
1031
100
AcDbProxyObject
 90
      499
 91
      615
 93
      496
310
5728666666666667A67E199999999999E99FD22405014050140501405014050140501405014050140501405014050140501405014050140501405014050102
340
1047
 94
        0
1001
ACAD
1000
AcadProxyRoundTripData
1071
      550
1071
   393239
1070
     0
  0
ACAD_PROXY_OBJECT
  5
103F
330
1031
100
AcDbProxyObject
 90
      499
 91
      615
 93
       10
310
5700
 94
        0
1001
ACAD
1000
AcadProxyRoundTripData
1071
      551
1071
   393239
1070
     0
  0
ACAD_PROXY_OBJECT
  5
1040
330
1031
100
AcDbProxyObject
 90
      499
 91
      615
 93
      223
310
572290EA22A7D90F49F8000000000000108140000000000000420204
340
1048
340
1049
 94
        0
1001
ACAD
1000
AcadProxyRoundTripData
1071
      552
1071
   393239
1070
     0
  0
ACAD_PROXY_OBJECT
  5
1041
330
1031
100
AcDbProxyObject
 90
      499
 91
      615
 93
    12255
310
5710E411255115350141236025B690140501406901000000000000091013347454E545241434F2C4A504E2C302C8D8096DA2C47454E54524154582C25732C2847454E4D53472067656E647767203232322940690120281A8AA2CA0282484A4BE52028120280A0320200000000000012202668E8A9CA8A482869E5894A09C58
310
605921292F94588E8A9CA8A482A8B0584AE658508E8A9C9AA68E40CECADCC8EECE406464665280D202405044E414D454050496BC914F4051C40640A80000000000004E404CD1D15395149050D3CB1294138B0C0B25AF2453CB11D15395149055160B095CCB0A11D1539354D1C819D95B991DD9C80C8C8D8A50190B3D424C4F
310
434B3A4E414D4540480A0A888AA686A480A0921C12D7C80A3A80C81D0000000000100A28099A3A2A72A2920A1A79625282716181648704B5F1623A2A72A2920AA2C1612B9961423A2A726A9A39033B2B7323BB39019189B94A034809014214D51053911054911014122D2E29A50147501904A000000000000125013347454E
310
545241434F2C4A504E2C302C8B4B8A692C47454E54524154582C25732C2847454E4D53472067656E64776720323138294069012028426A0AA22A924A0A62028246EF4BDFA028EA0320B40000000000001CA02668E8A9CA8A482869E5894A09C5860591BBD2F7E588E8A9CA8A482A8B0584AE658508E8A9C9AA68E40CECADCC
310
8EECE406464625280D202405044E4F544540504928D8B4C4051D40641A80000000000003E404CD1D15395149050D3CB1294138B0C0B24A362D30B11D15395149055160B095CCB0A11D1539354D1C819D95B991DD9C80C8C8D4A501240480A0CAC8A9C889EA480A0D9BBDBB81BD6080A3A80C83D00000000000007C809AA3A2
310
A72A2920A1A79625282716181666EF6EE06F581623A2A72A2920AA2C1612B9961423A2A726A9A39033B2B7323BB39019191A14A0248090141911154D0D48C90141A43825AF880C90147501908A000000000020145013447454E545241434F2C4A504E2C302C90E096BE20322C47454E54524154582C25732C2847454E4D534
310
72067656E6477672033362940490120284A9AA20A72220A922192028345A5C53490192028EA03213400000000000024A026A8E8A9CA8A482869E5894A09C586059169714D24064588E8A9CA8A482A8B0584AE658508E8A9C9AA68E40CECADCC8EECE4064646052809202405094D4154455249414C32405068DDE97BF203240
310
51D40642A8713D0AD7A37045404D11D15395149050D3CB1294138B0C0B2377A5EFC80C8B11D15395149055160B095CCB0A11D1539354D1C819D95B991DD9C80D0C0A501240480A089A82A6A680A091D7F2F9480A3A80A0485A068100000000000007C809923A2A72A2920A1A796252827161816475FCBE51623A2A72A2920A
310
A2C1612B9961423A2A726A9A39033B2B7323BB3901A1914A024809014154149250D150141226FE29A501475014090C409020000000000000F9013247454E545241434F2C4A504E2C302C89BF8A692C47454E54524154582C25732C2847454E4D53472067656E6477672034332940490120281A224A6A02824850CB202028EA
310
028121A81A040000000000001F202648E8A9CA8A482869E5894A09C58605921432C80588E8A9CA8A482A8B0584AE658508E8A9C9AA68E40CECADCC8EECE406868528092024050E445020000000000000510107004060000000000000F9000000000000003E4041CF4F125511534F9014060000000000000F90000000000000
310
03E4041CF4F125511534F9014060000000000000D100000000000000344041CF4F125511534F9014060000000000000D100000000000000344041CF4F125511534F90140A4040000000000003E400000000000000F901073D3C4954454D3E405063D3C5154593E4050180000000000003E400000000000000F901073D3C495
310
4454D3E406404000000000000003E400000000000000F902888000000000000208081A0881A068120480A032208521122080D21480D211480A1485214852050000000000003C2FC000000000000F0BF4050241CCDCCCCCCCCCCEC3F3373333333333B0FC0000000000000C40480D0590140D04416406800000000000018808
310
120480A026280A02
340
0
340
0
 94
        0
1001
ACAD
1000
AcadProxyRoundTripData
1071
      553
1071
   393239
1070
     0
  0
ACAD_PROXY_OBJECT
  5
1042
330
1031
100
AcDbProxyObject
 90
      499
 91
      615
 93
      864
310
5704000000000000144048CF4F11115510525317D3105091530F880A0F11115510525317D05094D4D0D053114F8A51141C9A9999999999B93F26A666666666724FC000000000000E03F4000000000000004000000000000005100000000000000244041C000000000000144000
340
14
340
103A
 94
        0
1001
ACAD
1000
AcadProxyRoundTripData
1071
      554
1071
   393239
1070
     0
  0
ACAD_PROXY_OBJECT
  5
1043
330
1031
100
AcDbProxyObject
 90
      499
 91
      615
 93
      745
310
5700B00000000000002880959E9E29A2A1AA24A7A72FA620A122A62FA324A929AA1F169E29A2A1AA24A7A72FA620A122A62FA620A9AA1F00000000000004880FF41C88A0E0000000000001220000000000000028800000000000000A2000
340
36
340
103A
 94
        0
1001
ACAD
1000
AcadProxyRoundTripData
1071
      555
1071
   393239
1070
     0
  0
ACAD_PROXY_OBJECT
  5
1044
330
1031
100
AcDbProxyObject
 90
      499
 91
      615
 93
      151
310
57280000000000000840A3D0A5723F0BD1F200
 94
        0
1001
ACAD
1000
AcadProxyRoundTripData
1071
      556
1071
   393239
1070
     0
  0
ACAD_PROXY_OBJECT
  5
1045
330
1031
100
AcDbProxyObject
 90
      499
 91
      615
 93
     8042
310
571084050B90142A4050240509C3DDCCDFDAB0C420314043A013D2525633C486F6C653A63746469613E2078203C486F6C653A637464657074683E20555C503C696628657175616C28486F6C653A7461707065642C223022292C22252563222C486F6C653A6E6F6D696E616C202220782022293E3C696628657175616C28486
310
F6C653A7461707065642C223022292C486F6C653A6469612C486F6C653A706974636864657363293E3C696628657175616C28486F6C653A7461707065642C223122292C22207820222C2222293E3C696628657175616C28486F6C653A7461707065642C223122292C486F6C653A74617064657074682C2222293E203C69662
310
8657175616C28486F6C653A7465726D696E6174696F6E2C223022292C22202F20222C2222293E3C696628657175616C28486F6C653A7465726D696E6174696F6E2C223022292C486F6C653A64657074682C2222293E4064050340509C3DDCCDFDAB0C420314043B013D2525633C486F6C653A63746469613E2078203C486F6
310
C653A6374616E676C653E2525645C503C696628657175616C28486F6C653A7461707065642C223022292C22252563222C486F6C653A6E6F6D696E616C202220782022293E3C696628657175616C28486F6C653A7461707065642C223022292C486F6C653A6469612C486F6C653A706974636864657363293E3C69662865717
310
5616C28486F6C653A7461707065642C223122292C22207820222C2222293E3C696628657175616C28486F6C653A7461707065642C223122292C486F6C653A74617064657074682C2222293E203C696628657175616C28486F6C653A7465726D696E6174696F6E2C223022292C22202F20222C2222293E3C696628657175616
310
C28486F6C653A7465726D696E6174696F6E2C223022292C486F6C653A64657074682C2222293E4064050140509C3DDCCDFDAB0C4203140416013D3C696628657175616C28486F6C653A7461707065642C223022292C22252563222C486F6C653A6E6F6D696E616C202220782022293E3C696628657175616C28486F6C653A7
310
461707065642C223022292C486F6C653A6469612C486F6C653A706974636864657363293E3C696628657175616C28486F6C653A7461707065642C223122292C22207820222C2222293E3C696628657175616C28486F6C653A7461707065642C223122292C486F6C653A74617064657074682C2222293E203C6966286571756
310
16C28486F6C653A7465726D696E6174696F6E2C223022292C22202F20222C2222293E3C696628657175616C28486F6C653A7465726D696E6174696F6E2C223022292C486F6C653A64657074682C2222293E4064051E40509C3DDCCDFDAB0C420314050C3D3C535444503A444553433E40640515AB5
 94
        0
1001
ACAD
1000
AcadProxyRoundTripData
1071
      557
1071
   393239
1070
     0
  0
ACAD_PROXY_OBJECT
  5
104B
330
1031
100
AcDbProxyObject
 90
      499
 91
      615
 93
       20
310
571018
340
1032
 94
        0
1001
ACAD
1000
AcadProxyRoundTripData
1071
      558
1071
   393239
1070
     0
  0
ACAD_PROXY_OBJECT
  5
104C
330
1031
100
AcDbProxyObject
 90
      499
 91
      615
 93
      250
310
571020000000000000A1000000000000002440408F0F9023C3E409A0DCFFFF80
340
104D
340
0
340
0
340
104E
340
104F
340
1050
340
1051
340
1052
340
1057
340
0
 94
        0
1001
ACAD
1000
AcadProxyRoundTripData
1071
      559
1071
   393239
1070
     0
  0
ACAD_PROXY_OBJECT
  5
1058
330
1031
100
AcDbProxyObject
 90
      499
 91
      615
 93
    13131
310
5711A003FFFFFFFD03030003000000000000031000903030003000000000000031000805098DC0955782CCD8BDC4014E11D15395149050D3CB1294138B0C0B23702555E0B3362F710B11D15395149055160B095CCB0A11D1539354D1C819D95B991A5B5E880CCC0A78000C0000000000000000000000000000000100000000
310
0000031010240000000000000C4040A0141E322B0EC3337B64053647454E545241434F2C4A504E2C302C8C8AC3B0CCDED92C47454E54524154582C25732C2847454E4D53472067656E64696D7A20333129E00030000000000000000000000000000000040000000000000C40409000000000000031010290D4411140903411
310
0541D0C4350F4050E44D03449074510F000141232D24D7C053247454E545241434F2C4A504E2C302C8CB4935F2C47454E54524154582C25732C2847454E4D53472067656E64696D7A20312900010105002214000281464500A608E8A9CA8A482869E5894A09C5860591914588E8A9CA8A482A8B0584AE658508E8A9C9AA68E
310
40CECADCC8D2DAF4406452029F9E9E27B934B3B4B71F1E24A31427A91424A9A12620A7259427B934B3B4B7149624A9A12620A7259424B73232BC149496111116111711149F1E24B73232BC1F00808200111A000140560052F47454E545241434F2C4A504E2C302C582C47454E54524154582C25732C2847454E4D534720676
310
56E64696D7A20332900010100002054000280AC80A5E8E8A9CA8A482869E5894A09C586058B2588E8A9CA8A482A8B0584AE658508E8A9C9AA68E40CECADCC8D2DAF4406852000202000040E800050152014BD1D15395149050D3CB1294138B0C0B148B11D15395149055160B095CCB0A11D1539354D1C819D95B991A5B5E88
310
0D8A400040400008250000A0507A6029823A2A72A2920A1A79625282716181641E99623A2A72A2920AA2C1612B9961423A2A726A9A39033B2B73234B6BD101B948000808180105A000140A0F4C053047454E545241434F2C4A504E2C302C83D32C47454E54524154582C25732C2847454E4D53472067656E64696D7A203829
310
000101010020F400028248704B5F00A668E8A9CA8A482869E5894A09C58605921C12D7C588E8A9CA8A482A8B0584AE658508E8A9C9AA68E40CECADCC8D2DAF440646052000200080043280005048B4B8A69014CD1D15395149050D3CB1294138B0C0B22D2E29A4B11D15395149055160B095CCB0A11D1539354D1C819D95B9
310
91A5B5E880C8C4A4000400100086D0000A09196926BE029923A2A72A2920A1A796252827161816465A49AF9623A2A72A2920AA2C1612B9961423A2A726A9A39033B2B73234B6BD10189480A026202020A0043E80005048D8096DA014CD1D15395149050D3CB1294138B0C0B236025B68B11D15395149055160B095CCB0A11D
310
1539354D1C819D95B991A5B5E880C4D0A4000404140080D0000A0F65BB87BD5F717A029B23A2A72A2920A1A796252827161816596EE1EF57DC5E9623A2A72A2920AA2C1612B9961423A2A726A9A39033B2B73234B6BD10189A94800080828010EA0001426322ACB770F7ABEE2F4053847454E545241434F2C4A504E2C302C8
310
C8AB2DDC3DEAFB8BD2C47454E54524154582C25732C2847454E4D53472067656E64696D7A2031372900010105002274000281464500A628E8A9CA8A482869E5894A09C5860591914588E8A9CA8A482A8B0584AE658508E8A9C9AA68E40CECADCC8D2DAF440626C52000202080044A8000504909497CA014CD1D15395149050
310
D3CB1294138B0C0B242525F28B11D15395149055160B095CCB0A11D1539354D1C819D95B991A5B5E880C4E4A400040418008A521E000000000000001CA040C00000000000034408080000000000006881010000000000000D102040000000000001A2040800000000000034408180000000000007281030000000000001250
310
20600000000004028A040000000000000034408000000000000004881000000000000000D102000000000000001A204000000000000003440818000000000000508143C0000000000000039408180000000000006881030000000000000D102060000000000001A2040C000000000000344081800000000000068810300000
310
00000000E5020600000000000024A040C000000000080514080000000000000068810000000000000009102000000000000001A2040000000000000034408180000000000006881030000000000000A10283A2000000087800000204000000818000002080000008280000020E00000080A240000000
340
0
340
0
340
0
340
0
 94
        0
1001
ACAD
1000
AcadProxyRoundTripData
1071
      560
1071
   393239
1070
     0
  0
ACAD_PROXY_OBJECT
  5
1059
330
1031
100
AcDbProxyObject
 90
      499
 91
      615
 93
     6922
310
5719740D254D3D0649534F5F4133429254D3D7D5125513115051349534F5F42525F5265766973696F6E6C69737446111413478342028323937783834316D6D2920421254D3D7D04D1E0D11141327835202835393478323130326D6D29421254D3D7D04C9E0D51141347839202832393778313839326D6D29421254D3D7D04D
310
1E0E51141337837202834323078323038306D6D29421254D3D7D04CDE0DD1141347838202832393778313638326D6D29421254D3D7D04D1E0E11141327834202835393478313638326D6D29421254D3D7D04C9E0D10E41312028353934783834316D6D29419254D3D7D04C51141347837202832393778313437316D6D29421
310
254D3D7D04D1E0DD1141347836202832393778313236316D6D29421254D3D7D04D1E0D91141347835202832393778313035316D6D29421254D3D7D04D1E0D5104130202838343078313138396D6D2920419254D3D7D04C10E41332028323937783432306D6D29419254D3D7D04CD1141327833202835393478313236316D6D
310
29421254D3D7D04C9E0CD10413478332028323937783633306D6D29421254D3D7D04D1E0CD1141337834202834323078313138396D6D29421254D3D7D04CDE0D11141337836202834323078313738336D6D29421254D3D7D04CDE0D91141337835202834323078313438366D6D29421254D3D7D04CDE0D50E4132202834323
310
0783539346D6D29419254D3D7D04C910413378332028343230783839316D6D29421254D3D7D04CDE0CD0E41342028323937783231306D6D29419254D3D7D04D1124130783220283131383978313638326D6D29421254D3D7D04C1E0C9124130783320283131383978323532336D6D29421254D3D7D04C1E0CD114131783420
310
2838343178323337386D6D29421254D3D7D04C5E0D11141317833202838343178313738336D6D29421254D3D7D04C5E0CD02431254D3C82557247A25E4C81050A49534F5F5449544C4541431254D3C82557247A25E4C81090A49534F5F5449544C45424110B979A97F0D8BDC45F424C5F44D254D3D7D09317D4995D9A5CDA5
310
BDB9B1A5CDD10B979A97F0D8BDC45F544C5F44D254D3D7D51317D4995D9A5CDA5BDB9B1A5CDD10B979A97F0D8BDC45F42525F44D254D3D7D09497D4995D9A5CDA5BDB9B1A5CDD10B979A97F0D8BDC45F54525F44D254D3D7D51497D4995D9A5CDA5BDB9B1A5CDD00
 94
        0
1001
ACAD
1000
AcadProxyRoundTripData
1071
      561
1071
   393239
1070
     0
  0
ENDSEC
  0
EOF
