  0
SECTION
  2
HEADER
  9
$ACADVER
  1
AC1014
  9
$ACADMAINTVER
 70
     9
  9
$DWGCODEPAGE
  3
ANSI_932
  9
$INSBASE
 10
0.0
 20
0.0
 30
0.0
  9
$EXTMIN
 10
-127.5260940629282
 20
26.14091065
 30
0.0
  9
$EXTMAX
 10
871.6775639000001
 20
1119.762851124412
 30
0.0
  9
$LIMMIN
 10
0.0
 20
0.0
  9
$LIMMAX
 10
1499.999994
 20
999.9999999999998
  9
$ORTHOMODE
 70
     1
  9
$REGENMODE
 70
     1
  9
$FILLMODE
 70
     1
  9
$QTEXTMODE
 70
     0
  9
$MIRRTEXT
 70
     0
  9
$DRAGMODE
 70
     2
  9
$LTSCALE
 40
5.0
  9
$OSMODE
 70
    37
  9
$ATTMODE
 70
     1
  9
$TEXTSIZE
 40
3.0
  9
$TRACEWID
 40
0.05
  9
$TEXTSTYLE
  7
K
  9
$CLAYER
  8
SUNPOU
  9
$CELTYPE
  6
BYLAYER
  9
$CECOLOR
 62
   256
  9
$CELTSCALE
 40
1.0
  9
$DELOBJ
 70
     1
  9
$DISPSILH
 70
     0
  9
$DIMSCALE
 40
5.0
  9
$DIMASZ
 40
3.0
  9
$DIMEXO
 40
1.0
  9
$DIMDLI
 40
6.0
  9
$DIMRND
 40
0.0
  9
$DIMDLE
 40
0.0
  9
$DIMEXE
 40
1.0
  9
$DIMTP
 40
0.01
  9
$DIMTM
 40
0.02
  9
$DIMTXT
 40
3.0
  9
$DIMCEN
 40
0.0
  9
$DIMTSZ
 40
0.0
  9
$DIMTOL
 70
     0
  9
$DIMLIM
 70
     0
  9
$DIMTIH
 70
     0
  9
$DIMTOH
 70
     0
  9
$DIMSE1
 70
     0
  9
$DIMSE2
 70
     0
  9
$DIMTAD
 70
     3
  9
$DIMZIN
 70
     8
  9
$DIMBLK
  1
ARROW
  9
$DIMASO
 70
     1
  9
$DIMSHO
 70
     0
  9
$DIMPOST
  1

  9
$DIMAPOST
  1

  9
$DIMALT
 70
     0
  9
$DIMALTD
 70
     2
  9
$DIMALTF
 40
25.4
  9
$DIMLFAC
 40
1.0
  9
$DIMTOFL
 70
     1
  9
$DIMTVP
 40
0.0
  9
$DIMTIX
 70
     1
  9
$DIMSOXD
 70
     0
  9
$DIMSAH
 70
     1
  9
$DIMBLK1
  1
ARROW
  9
$DIMBLK2
  1
ARROW
  9
$DIMSTYLE
  2
IMCADLT
  9
$DIMCLRD
 70
     0
  9
$DIMCLRE
 70
     0
  9
$DIMCLRT
 70
     0
  9
$DIMTFAC
 40
0.45
  9
$DIMGAP
 40
1.5
  9
$DIMJUST
 70
     0
  9
$DIMSD1
 70
     0
  9
$DIMSD2
 70
     0
  9
$DIMTOLJ
 70
     1
  9
$DIMTZIN
 70
     8
  9
$DIMALTZ
 70
     0
  9
$DIMALTTZ
 70
     0
  9
$DIMFIT
 70
     3
  9
$DIMUPT
 70
     1
  9
$DIMUNIT
 70
     2
  9
$DIMDEC
 70
     2
  9
$DIMTDEC
 70
     2
  9
$DIMALTU
 70
     2
  9
$DIMALTTD
 70
     2
  9
$DIMTXSTY
  7
STANDARD
  9
$DIMAUNIT
 70
     0
  9
$LUNITS
 70
     2
  9
$LUPREC
 70
     2
  9
$SKETCHINC
 40
0.1
  9
$FILLETRAD
 40
10.0
  9
$AUNITS
 70
     0
  9
$AUPREC
 70
     2
  9
$MENU
  1
STDR12J
  9
$ELEVATION
 40
0.0
  9
$PELEVATION
 40
0.0
  9
$THICKNESS
 40
0.0
  9
$LIMCHECK
 70
     0
  9
$BLIPMODE
 70
     0
  9
$CHAMFERA
 40
0.0
  9
$CHAMFERB
 40
0.0
  9
$CHAMFERC
 40
0.0
  9
$CHAMFERD
 40
0.0
  9
$SKPOLY
 70
     0
  9
$TDCREATE
 40
2452044.587078715
  9
$TDUPDATE
 40
2453133.653768229
  9
$TDINDWG
 40
0.1681147685
  9
$TDUSRTIMER
 40
0.1681147685
  9
$USRTIMER
 70
     1
  9
$ANGBASE
 50
0.0
  9
$ANGDIR
 70
     0
  9
$PDMODE
 70
     3
  9
$PDSIZE
 40
0.0
  9
$PLINEWID
 40
0.0
  9
$COORDS
 70
     1
  9
$SPLFRAME
 70
     0
  9
$SPLINETYPE
 70
     6
  9
$SPLINESEGS
 70
     8
  9
$ATTDIA
 70
     0
  9
$ATTREQ
 70
     1
  9
$HANDLING
 70
 10241
  9
$HANDSEED
  5
7E11
  9
$SURFTAB1
 70
     6
  9
$SURFTAB2
 70
     6
  9
$SURFTYPE
 70
     6
  9
$SURFU
 70
     6
  9
$SURFV
 70
     6
  9
$UCSNAME
  2

  9
$UCSORG
 10
0.0
 20
0.0
 30
0.0
  9
$UCSXDIR
 10
1.0
 20
0.0
 30
0.0
  9
$UCSYDIR
 10
0.0
 20
1.0
 30
0.0
  9
$PUCSNAME
  2

  9
$PUCSORG
 10
0.0
 20
0.0
 30
0.0
  9
$PUCSXDIR
 10
1.0
 20
0.0
 30
0.0
  9
$PUCSYDIR
 10
0.0
 20
1.0
 30
0.0
  9
$USERI1
 70
     3
  9
$USERI2
 70
     1
  9
$USERI3
 70
     1
  9
$USERI4
 70
     1
  9
$USERI5
 70
     1
  9
$USERR1
 40
1.0
  9
$USERR2
 40
3.0
  9
$USERR3
 40
3.0
  9
$USERR4
 40
3.0
  9
$USERR5
 40
10.0
  9
$WORLDVIEW
 70
     1
  9
$SHADEDGE
 70
     3
  9
$SHADEDIF
 70
    70
  9
$TILEMODE
 70
     0
  9
$MAXACTVP
 70
    16
  9
$PINSBASE
 10
0.0
 20
0.0
 30
0.0
  9
$PLIMCHECK
 70
     0
  9
$PEXTMIN
 10
-0.0086728619988889
 20
-0.0128614329847778
 30
-0.0000000000000058
  9
$PEXTMAX
 10
420.0335338705903
 20
297.0043772324828
 30
0.0000000000000104
  9
$PLIMMIN
 10
-7.081018693824126
 20
-7.079160849318069
  9
$PLIMMAX
 10
433.0834530356638
 20
304.141908049295
  9
$UNITMODE
 70
     0
  9
$VISRETAIN
 70
     0
  9
$PLINEGEN
 70
     0
  9
$PSLTSCALE
 70
     0
  9
$TREEDEPTH
 70
     0
  9
$PICKSTYLE
 70
     1
  9
$CMLSTYLE
  2
STANDARD
  9
$CMLJUST
 70
     0
  9
$CMLSCALE
 40
1.0
  9
$PROXYGRAPHICS
 70
     1
  9
$MEASUREMENT
 70
     1
  0
ENDSEC
  0
SECTION
  2
CLASSES
  0
CLASS
  1
LWPOLYLINE
  2
AcDbPolyline
  3
AutoCAD 2000
 90
        0
280
     0
281
     1
  0
CLASS
  1
HATCH
  2
AcDbHatch
  3
AutoCAD 2000
 90
        0
280
     0
281
     1
  0
CLASS
  1
DICTIONARYVAR
  2
AcDbDictionaryVar
  3
AutoCAD 2000
 90
        0
280
     0
281
     0
  0
CLASS
  1
ACDBDICTIONARYWDFLT
  2
AcDbDictionaryWithDefault
  3
AutoCAD 2000
 90
        0
280
     0
281
     0
  0
CLASS
  1
ACDBPLACEHOLDER
  2
AcDbPlaceHolder
  3
AutoCAD 2000
 90
        0
280
     0
281
     0
  0
CLASS
  1
LAYOUT
  2
AcDbLayout
  3
AutoCAD 2000
 90
        0
280
     0
281
     0
  0
CLASS
  1
LONG_TRANSACTION
  2
AcDbLongTransaction
  3
AutoCAD 2000
 90
        0
280
     0
281
     0
  0
CLASS
  1
LWPOLYLINE
  2
AcDbPolyline
  3
AutoCAD 2000
 90
        0
280
     0
281
     1
  0
CLASS
  1
HATCH
  2
AcDbHatch
  3
AutoCAD 2000
 90
        0
280
     0
281
     1
  0
CLASS
  1
XRECORD
  2
AcDbXrecord
  3
AutoCAD 2000
 90
        0
280
     0
281
     0
  0
ENDSEC
  0
SECTION
  2
TABLES
  0
TABLE
  2
VPORT
  5
CF
330
0
100
AcDbSymbolTable
 70
    10
  0
VPORT
  5
F5
330
CF
100
AcDbSymbolTableRecord
100
AcDbViewportTableRecord
  2
2
 70
     0
 10
0.5
 20
0.0
 11
1.0
 21
1.0
 12
0.9240312421264802
 22
1.052650975462766
 13
0.0
 23
0.0
 14
1.0
 24
1.0
 15
10.0
 25
10.0
 16
0.0
 26
0.0
 36
1.0
 17
0.0
 27
0.0
 37
0.0
 40
2.105301950925533
 41
0.8778135048231511
 42
50.0
 43
0.0
 44
0.0
 50
0.0
 51
0.0
 71
     0
 72
   500
 73
     1
 74
     1
 75
     0
 76
     0
 77
     0
 78
     0
  0
VPORT
  5
F6
330
CF
100
AcDbSymbolTableRecord
100
AcDbViewportTableRecord
  2
2
 70
     0
 10
0.0
 20
0.0
 11
0.5
 21
1.0
 12
0.9240312421264802
 22
1.052650975462766
 13
0.0
 23
0.0
 14
1.0
 24
1.0
 15
10.0
 25
10.0
 16
0.0
 26
0.0
 36
1.0
 17
0.0
 27
0.0
 37
0.0
 40
2.105301950925533
 41
0.8778135048231511
 42
50.0
 43
0.0
 44
0.0
 50
0.0
 51
0.0
 71
     0
 72
   500
 73
     1
 74
     1
 75
     0
 76
     0
 77
     0
 78
     0
  0
VPORT
  5
F7
330
CF
100
AcDbSymbolTableRecord
100
AcDbViewportTableRecord
  2
3
 70
     0
 10
0.0
 20
0.5
 11
1.0
 21
1.0
 12
2.832169994473273
 22
1.052650975462766
 13
0.0
 23
0.0
 14
1.0
 24
1.0
 15
10.0
 25
10.0
 16
0.0
 26
0.0
 36
1.0
 17
0.0
 27
0.0
 37
0.0
 40
2.105301950925533
 41
3.571428571428571
 42
50.0
 43
0.0
 44
0.0
 50
0.0
 51
0.0
 71
     0
 72
   500
 73
     1
 74
     1
 75
     0
 76
     0
 77
     0
 78
     0
  0
VPORT
  5
F8
330
CF
100
AcDbSymbolTableRecord
100
AcDbViewportTableRecord
  2
3
 70
     0
 10
0.0
 20
0.0
 11
1.0
 21
0.5
 12
2.856741679241311
 22
1.052650975462766
 13
0.0
 23
0.0
 14
1.0
 24
1.0
 15
10.0
 25
10.0
 16
0.0
 26
0.0
 36
1.0
 17
0.0
 27
0.0
 37
0.0
 40
2.105301950925533
 41
3.594771241830065
 42
50.0
 43
0.0
 44
0.0
 50
0.0
 51
0.0
 71
     0
 72
   500
 73
     1
 74
     1
 75
     0
 76
     0
 77
     0
 78
     0
  0
VPORT
  5
F9
330
CF
100
AcDbSymbolTableRecord
100
AcDbViewportTableRecord
  2
4
 70
     0
 10
0.5
 20
0.0
 11
1.0
 21
0.5
 12
2.886857516709719
 22
1.052650975462766
 13
0.0
 23
0.0
 14
1.0
 24
1.0
 15
10.0
 25
10.0
 16
0.0
 26
0.0
 36
1.0
 17
0.0
 27
0.0
 37
0.0
 40
4.27520703030907
 41
1.784313725490195
 42
50.0
 43
0.0
 44
0.0
 50
0.0
 51
0.0
 71
     0
 72
   500
 73
     1
 74
     1
 75
     0
 76
     0
 77
     0
 78
     0
  0
VPORT
  5
FA
330
CF
100
AcDbSymbolTableRecord
100
AcDbViewportTableRecord
  2
4
 70
     0
 10
0.5
 20
0.5
 11
1.0
 21
1.0
 12
2.862090274555523
 22
1.052650975462766
 13
0.0
 23
0.0
 14
1.0
 24
1.0
 15
10.0
 25
10.0
 16
0.0
 26
0.0
 36
1.0
 17
0.0
 27
0.0
 37
0.0
 40
4.27520703030907
 41
1.772727272727272
 42
50.0
 43
0.0
 44
0.0
 50
0.0
 51
0.0
 71
     0
 72
   500
 73
     1
 74
     1
 75
     0
 76
     0
 77
     0
 78
     0
  0
VPORT
  5
FB
330
CF
100
AcDbSymbolTableRecord
100
AcDbViewportTableRecord
  2
4
 70
     0
 10
0.0
 20
0.5
 11
0.5
 21
1.0
 12
2.862090274555523
 22
1.052650975462766
 13
0.0
 23
0.0
 14
1.0
 24
1.0
 15
10.0
 25
10.0
 16
0.0
 26
0.0
 36
1.0
 17
0.0
 27
0.0
 37
0.0
 40
4.27520703030907
 41
1.772727272727272
 42
50.0
 43
0.0
 44
0.0
 50
0.0
 51
0.0
 71
     0
 72
   500
 73
     1
 74
     1
 75
     0
 76
     0
 77
     0
 78
     0
  0
VPORT
  5
FC
330
CF
100
AcDbSymbolTableRecord
100
AcDbViewportTableRecord
  2
4
 70
     0
 10
0.0
 20
0.0
 11
0.5
 21
0.5
 12
2.886857516709719
 22
1.052650975462766
 13
0.0
 23
0.0
 14
1.0
 24
1.0
 15
10.0
 25
10.0
 16
0.0
 26
0.0
 36
1.0
 17
0.0
 27
0.0
 37
0.0
 40
4.27520703030907
 41
1.784313725490195
 42
50.0
 43
0.0
 44
0.0
 50
0.0
 51
0.0
 71
     0
 72
   500
 73
     1
 74
     1
 75
     0
 76
     0
 77
     0
 78
     0
  0
VPORT
  5
7DE3
330
CF
100
AcDbSymbolTableRecord
100
AcDbViewportTableRecord
  2
*ACTIVE
 70
     0
 10
0.0
 20
0.0
 11
1.0
 21
1.0
 12
874.4738206819718
 22
559.9207485797479
 13
0.0
 23
0.0
 14
1.0
 24
1.0
 15
10.0
 25
10.0
 16
0.0
 26
0.0
 36
1.0
 17
0.0
 27
0.0
 37
0.0
 40
1127.821365310276
 41
1.84990253411306
 42
50.0
 43
0.0
 44
0.0
 50
0.0
 51
0.0
 71
     0
 72
   500
 73
     1
 74
     0
 75
     0
 76
     0
 77
     0
 78
     0
  0
ENDTAB
  0
TABLE
  2
LTYPE
  5
CC
330
0
100
AcDbSymbolTable
 70
     5
  0
LTYPE
  5
D9
330
CC
100
AcDbSymbolTableRecord
100
AcDbLinetypeTableRecord
  2
BYBLOCK
 70
     0
  3

 72
    65
 73
     0
 40
0.0
  0
LTYPE
  5
DA
330
CC
100
AcDbSymbolTableRecord
100
AcDbLinetypeTableRecord
  2
BYLAYER
 70
     0
  3

 72
    65
 73
     0
 40
0.0
  0
LTYPE
  5
DB
330
CC
100
AcDbSymbolTableRecord
100
AcDbLinetypeTableRecord
  2
CONTINUOUS
 70
     0
  3
実線
 72
    65
 73
     0
 40
0.0
  0
LTYPE
  5
F1
330
CC
100
AcDbSymbolTableRecord
100
AcDbLinetypeTableRecord
  2
DASHED
 70
     0
  3
__ __ __ __ __ __ __ __ __ __ __ __ __ __ __
 72
    65
 73
     2
 40
0.75
 49
0.5
 74
     0
 49
-0.25
 74
     0
  0
LTYPE
  5
F2
330
CC
100
AcDbSymbolTableRecord
100
AcDbLinetypeTableRecord
  2
CENTER
 70
     0
  3
____ _ ____ _ ____ _ ____ _ ____ _ ____ _ ____
 72
    65
 73
     4
 40
2.0
 49
1.25
 74
     0
 49
-0.25
 74
     0
 49
0.25
 74
     0
 49
-0.25
 74
     0
  0
LTYPE
  5
F3
330
CC
100
AcDbSymbolTableRecord
100
AcDbLinetypeTableRecord
  2
PHANTOM
 70
     0
  3
_____ _ _ _____ _ _ _____ _ _ _____ _ _ ____
 72
    65
 73
     6
 40
2.5
 49
1.25
 74
     0
 49
-0.25
 74
     0
 49
0.25
 74
     0
 49
-0.25
 74
     0
 49
0.25
 74
     0
 49
-0.25
 74
     0
  0
LTYPE
  5
F4
330
CC
100
AcDbSymbolTableRecord
100
AcDbLinetypeTableRecord
  2
HIDDEN
 70
     0
  3
_ _ _ _ _ _ _ _ _ _ _ _ _ _ _ _ _ _ _ _ _ _ _
 72
    65
 73
     2
 40
0.375
 49
0.25
 74
     0
 49
-0.125
 74
     0
  0
ENDTAB
  0
TABLE
  2
LAYER
  5
C9
330
0
100
AcDbSymbolTable
 70
    19
  0
LAYER
  5
D6
330
C9
100
AcDbSymbolTableRecord
100
AcDbLayerTableRecord
  2
0
 70
     0
 62
     7
  6
CONTINUOUS
  0
LAYER
  5
100
330
C9
100
AcDbSymbolTableRecord
100
AcDbLayerTableRecord
  2
HASEN
 70
     0
 62
     2
  6
DASHED
  0
LAYER
  5
101
330
C9
100
AcDbSymbolTableRecord
100
AcDbLayerTableRecord
  2
ITTEN
 70
     0
 62
     1
  6
CENTER
  0
LAYER
  5
102
330
C9
100
AcDbSymbolTableRecord
100
AcDbLayerTableRecord
  2
NITEN
 70
     0
 62
     2
  6
PHANTOM
  0
LAYER
  5
103
330
C9
100
AcDbSymbolTableRecord
100
AcDbLayerTableRecord
  2
HATCH
 70
     0
 62
     4
  6
CONTINUOUS
  0
LAYER
  5
104
330
C9
100
AcDbSymbolTableRecord
100
AcDbLayerTableRecord
  2
SUNPOU
 70
     0
 62
     3
  6
CONTINUOUS
  0
LAYER
  5
105
330
C9
100
AcDbSymbolTableRecord
100
AcDbLayerTableRecord
  2
TEXT
 70
     0
 62
     3
  6
CONTINUOUS
  0
LAYER
  5
106
330
C9
100
AcDbSymbolTableRecord
100
AcDbLayerTableRecord
  2
SAISEN
 70
     0
 62
     4
  6
CONTINUOUS
  0
LAYER
  5
107
330
C9
100
AcDbSymbolTableRecord
100
AcDbLayerTableRecord
  2
JISSEN
 70
     0
 62
     7
  6
CONTINUOUS
  0
LAYER
  5
108
330
C9
100
AcDbSymbolTableRecord
100
AcDbLayerTableRecord
  2
HOJO
 70
     0
 62
     6
  6
CONTINUOUS
  0
LAYER
  5
109
330
C9
100
AcDbSymbolTableRecord
100
AcDbLayerTableRecord
  2
TENSEN
 70
     0
 62
     2
  6
HIDDEN
  0
LAYER
  5
10A
330
C9
100
AcDbSymbolTableRecord
100
AcDbLayerTableRecord
  2
HOJOORG
 70
     0
 62
     1
  6
CONTINUOUS
  0
LAYER
  5
10B
330
C9
100
AcDbSymbolTableRecord
100
AcDbLayerTableRecord
  2
WAKU
 70
     0
 62
     5
  6
CONTINUOUS
  0
LAYER
  5
10C
330
C9
100
AcDbSymbolTableRecord
100
AcDbLayerTableRecord
  2
POINT
 70
     0
 62
     7
  6
CONTINUOUS
  0
LAYER
  5
6F31
330
C9
100
AcDbSymbolTableRecord
100
AcDbLayerTableRecord
  2
WINDOW
 70
     0
 62
     7
  6
CONTINUOUS
  0
LAYER
  5
6F58
330
C9
100
AcDbSymbolTableRecord
100
AcDbLayerTableRecord
  2
DEFPOINTS
 70
     0
 62
     7
  6
CONTINUOUS
  0
LAYER
  5
6F7C
330
C9
100
AcDbSymbolTableRecord
100
AcDbLayerTableRecord
  2
BODY
 70
     0
 62
   131
  6
CONTINUOUS
  0
LAYER
  5
72AB
330
C9
100
AcDbSymbolTableRecord
100
AcDbLayerTableRecord
  2
SUNPOU2
 70
     0
 62
     3
  6
CONTINUOUS
  0
LAYER
  5
73A5
330
C9
100
AcDbSymbolTableRecord
100
AcDbLayerTableRecord
  2
HIDDEN_L
 70
     0
 62
     7
  6
CONTINUOUS
  0
ENDTAB
  0
TABLE
  2
STYLE
  5
CA
330
0
100
AcDbSymbolTable
 70
     2
  0
STYLE
  5
D7
330
CA
100
AcDbSymbolTableRecord
100
AcDbTextStyleTableRecord
  2
STANDARD
 70
     0
 40
0.0
 41
1.0
 50
0.0
 71
     0
 42
0.2
  3
ROMANS
  4
EXTFONT
  0
STYLE
  5
F0
330
CA
100
AcDbSymbolTableRecord
100
AcDbTextStyleTableRecord
  2
K
 70
     0
 40
0.0
 41
1.0
 50
0.0
 71
     0
 42
3.0
  3
ROMANS
  4
EXTFONT
  0
ENDTAB
  0
TABLE
  2
VIEW
  5
CD
330
0
100
AcDbSymbolTable
 70
     0
  0
ENDTAB
  0
TABLE
  2
UCS
  5
CE
330
0
100
AcDbSymbolTable
 70
     0
  0
ENDTAB
  0
TABLE
  2
APPID
  5
D0
330
0
100
AcDbSymbolTable
 70
     3
  0
APPID
  5
D8
330
D0
100
AcDbSymbolTableRecord
100
AcDbRegAppTableRecord
  2
ACAD
 70
     0
  0
APPID
  5
50D6
330
D0
100
AcDbSymbolTableRecord
100
AcDbRegAppTableRecord
  2
CONTENTTABDATA
 70
     0
  0
APPID
  5
50D7
330
D0
100
AcDbSymbolTableRecord
100
AcDbRegAppTableRecord
  2
CONTENTCURRENTTAB
 70
     0
  0
ENDTAB
  0
TABLE
  2
DIMSTYLE
  5
D1
330
0
100
AcDbSymbolTable
 70
    12
  0
DIMSTYLE
105
FF
330
D1
100
AcDbSymbolTableRecord
100
AcDbDimStyleTableRecord
  2
IMAO
 70
     0
  3

  4

  5
ARROW
  6
OPEN
  7
OPEN
 40
1.0
 41
1.5
 42
1.0
 43
6.0
 44
1.0
 45
0.0
 46
0.0
 47
495.0
 48
0.0
140
3.0
141
0.0
142
0.0
143
25.4
144
1.0
145
0.0
146
1.0
147
1.5
 71
     0
 72
     0
 73
     0
 74
     0
 75
     0
 76
     0
 77
     1
 78
     8
170
     0
171
     2
172
     1
173
     0
174
     1
175
     0
176
     0
177
     0
178
     0
270
     2
271
     2
272
     2
273
     2
274
     2
340
F0
275
     0
280
     0
281
     0
282
     0
283
     1
284
     8
285
     8
286
     8
287
     3
288
     1
  0
DIMSTYLE
105
401
330
D1
100
AcDbSymbolTableRecord
100
AcDbDimStyleTableRecord
  2
STANDARD
 70
     0
  3

  4

  5

  6
ARROW
  7
ARROW
 40
0.0
 41
6.0
 42
1.0
 43
6.0
 44
1.0
 45
0.0
 46
0.0
 47
0.5
 48
0.5
140
3.0
141
0.0
142
0.0
143
25.4
144
1.0
145
0.0
146
0.5
147
1.5
 71
     1
 72
     0
 73
     0
 74
     0
 75
     0
 76
     0
 77
     1
 78
     8
170
     0
171
     2
172
     1
173
     1
174
     1
175
     0
176
     0
177
     0
178
     0
270
     2
271
     0
272
     0
273
     2
274
     2
340
D7
275
     0
280
     0
281
     0
282
     0
283
     1
284
     0
285
     0
286
     0
287
     3
288
     1
  0
DIMSTYLE
105
402
102
{ACAD_REACTORS
330
7CF0
330
7D13
330
7D20
330
7D39
330
7D55
330
7D62
330
7D6F
330
7D92
330
7DAA
330
7DCE
102
}
330
D1
100
AcDbSymbolTableRecord
100
AcDbDimStyleTableRecord
  2
IMCADLT
 70
     0
  3

  4

  5
ARROW
  6
ARROW
  7
ARROW
 40
5.0
 41
3.0
 42
1.0
 43
6.0
 44
1.0
 45
0.0
 46
0.0
 47
0.01
 48
0.02
140
3.0
141
0.0
142
0.0
143
25.4
144
1.0
145
0.0
146
0.45
147
1.5
 71
     0
 72
     0
 73
     0
 74
     0
 75
     0
 76
     0
 77
     3
 78
     8
170
     0
171
     2
172
     1
173
     1
174
     1
175
     0
176
     0
177
     0
178
     0
270
     2
271
     2
272
     2
273
     2
274
     2
340
D7
275
     0
280
     0
281
     0
282
     0
283
     1
284
     8
285
     0
286
     0
287
     3
288
     1
  0
DIMSTYLE
105
F97
330
D1
100
AcDbSymbolTableRecord
100
AcDbDimStyleTableRecord
  2
IMAO_1
 70
     0
  3

  4

  5
ARROW
  6
ARROW
  7
ARROW
 40
0.0
 41
1.5
 42
1.0
 43
6.0
 44
1.0
 45
0.0
 46
0.0
 47
1.0
 48
0.0
140
3.0
141
0.0
142
0.0
143
25.4
144
1.0
145
0.0
146
0.5
147
1.5
 71
     1
 72
     0
 73
     0
 74
     0
 75
     0
 76
     0
 77
     1
 78
     8
170
     0
171
     2
172
     1
173
     1
174
     1
175
     0
176
     0
177
     0
178
     0
270
     2
271
     0
272
     0
273
     2
274
     2
340
D7
275
     0
280
     0
281
     0
282
     0
283
     1
284
     0
285
     0
286
     0
287
     3
288
     1
  0
DIMSTYLE
105
F98
330
D1
100
AcDbSymbolTableRecord
100
AcDbDimStyleTableRecord
  2
IMAO_05
 70
     0
  3

  4

  5
ARROW
  6
ARROW
  7
ARROW
 40
0.0
 41
1.5
 42
1.0
 43
6.0
 44
1.0
 45
0.0
 46
0.0
 47
0.5
 48
0.5
140
3.0
141
0.0
142
0.0
143
25.4
144
1.0
145
0.0
146
1.0
147
1.5
 71
     1
 72
     0
 73
     0
 74
     0
 75
     0
 76
     0
 77
     1
 78
     8
170
     0
171
     2
172
     1
173
     1
174
     1
175
     0
176
     0
177
     0
178
     0
270
     2
271
     1
272
     1
273
     2
274
     2
340
D7
275
     0
280
     0
281
     0
282
     0
283
     1
284
     0
285
     0
286
     0
287
     3
288
     1
  0
DIMSTYLE
105
F99
330
D1
100
AcDbSymbolTableRecord
100
AcDbDimStyleTableRecord
  2
IMAO_NOMAL
 70
     0
  3

  4

  5
ARROW
  6
ARROW
  7
ARROW
 40
0.0
 41
1.5
 42
1.0
 43
6.0
 44
1.0
 45
0.0
 46
0.0
 47
1.0
 48
0.0
140
3.0
141
0.0
142
0.0
143
25.4
144
1.0
145
0.0
146
0.5
147
1.5
 71
     0
 72
     0
 73
     0
 74
     0
 75
     0
 76
     0
 77
     1
 78
     8
170
     0
171
     2
172
     1
173
     1
174
     1
175
     0
176
     0
177
     0
178
     0
270
     2
271
     1
272
     1
273
     2
274
     2
340
D7
275
     0
280
     0
281
     0
282
     0
283
     1
284
     0
285
     0
286
     0
287
     3
288
     1
  0
DIMSTYLE
105
12F0
330
D1
100
AcDbSymbolTableRecord
100
AcDbDimStyleTableRecord
  2
IMAO_07
 70
     0
  3

  4

  5
ARROW
  6
ARROW
  7
ARROW
 40
0.0
 41
1.5
 42
1.0
 43
6.0
 44
1.0
 45
0.0
 46
0.0
 47
0.7
 48
0.7
140
3.0
141
0.0
142
0.0
143
25.4
144
1.0
145
0.0
146
1.0
147
1.5
 71
     1
 72
     0
 73
     0
 74
     0
 75
     0
 76
     0
 77
     1
 78
     8
170
     0
171
     2
172
     1
173
     1
174
     1
175
     0
176
     0
177
     0
178
     0
270
     2
271
     1
272
     1
273
     2
274
     2
340
D7
275
     0
280
     0
281
     0
282
     0
283
     1
284
     8
285
     8
286
     8
287
     5
288
     0
  0
DIMSTYLE
105
136D
330
D1
100
AcDbSymbolTableRecord
100
AcDbDimStyleTableRecord
  2
IMAO_M1
 70
     0
  3

  4

  5
ARROW
  6
ARROW
  7
ARROW
 40
0.0
 41
1.5
 42
1.0
 43
6.0
 44
1.0
 45
0.0
 46
0.0
 47
0.0
 48
1.0
140
3.0
141
0.0
142
0.0
143
25.4
144
1.0
145
0.0
146
0.5
147
1.5
 71
     1
 72
     0
 73
     0
 74
     0
 75
     0
 76
     0
 77
     1
 78
     8
170
     0
171
     2
172
     1
173
     1
174
     1
175
     0
176
     0
177
     0
178
     0
270
     2
271
     1
272
     1
273
     2
274
     2
340
D7
275
     0
280
     0
281
     0
282
     0
283
     1
284
     8
285
     8
286
     8
287
     3
288
     0
  0
DIMSTYLE
105
13E1
330
D1
100
AcDbSymbolTableRecord
100
AcDbDimStyleTableRecord
  2
IMAO_NOMAL_W
 70
     0
  3

  4

  5
ARROW
  6
ARROW
  7
ARROW
 40
0.0
 41
3.0
 42
1.0
 43
6.0
 44
1.0
 45
0.0
 46
0.0
 47
1.0
 48
0.0
140
6.0
141
0.0
142
0.0
143
25.4
144
1.0
145
0.0
146
0.5
147
3.0
 71
     0
 72
     0
 73
     0
 74
     0
 75
     0
 76
     0
 77
     1
 78
     8
170
     0
171
     2
172
     1
173
     1
174
     1
175
     0
176
     0
177
     0
178
     0
270
     2
271
     1
272
     1
273
     2
274
     2
340
D7
275
     0
280
     0
281
     0
282
     0
283
     1
284
     0
285
     0
286
     0
287
     3
288
     1
  0
DIMSTYLE
105
140E
330
D1
100
AcDbSymbolTableRecord
100
AcDbDimStyleTableRecord
  2
IMAO_05_W
 70
     0
  3

  4

  5
ARROW
  6
ARROW
  7
ARROW
 40
0.0
 41
3.0
 42
1.0
 43
6.0
 44
1.0
 45
0.0
 46
0.0
 47
0.5
 48
0.5
140
6.0
141
0.0
142
0.0
143
25.4
144
1.0
145
0.0
146
1.0
147
3.0
 71
     1
 72
     0
 73
     0
 74
     0
 75
     0
 76
     0
 77
     1
 78
     8
170
     0
171
     2
172
     1
173
     1
174
     1
175
     0
176
     0
177
     0
178
     0
270
     2
271
     1
272
     1
273
     2
274
     2
340
D7
275
     0
280
     0
281
     0
282
     0
283
     1
284
     0
285
     0
286
     0
287
     3
288
     1
  0
DIMSTYLE
105
140F
330
D1
100
AcDbSymbolTableRecord
100
AcDbDimStyleTableRecord
  2
IMAO_1_W
 70
     0
  3

  4

  5
ARROW
  6
ARROW
  7
ARROW
 40
0.0
 41
3.0
 42
1.0
 43
6.0
 44
1.0
 45
0.0
 46
0.0
 47
1.0
 48
0.0
140
6.0
141
0.0
142
0.0
143
25.4
144
1.0
145
0.0
146
0.5
147
3.0
 71
     1
 72
     0
 73
     0
 74
     0
 75
     0
 76
     0
 77
     1
 78
     8
170
     0
171
     2
172
     1
173
     1
174
     1
175
     0
176
     0
177
     0
178
     0
270
     2
271
     0
272
     0
273
     2
274
     2
340
D7
275
     0
280
     0
281
     0
282
     0
283
     1
284
     0
285
     0
286
     0
287
     3
288
     1
  0
DIMSTYLE
105
79AF
330
D1
100
AcDbSymbolTableRecord
100
AcDbDimStyleTableRecord
  2
ITM
 70
     0
  3

  4

  5

  6

  7

 40
1.0
 41
1.5
 42
1.0
 43
6.0
 44
1.0
 45
0.0
 46
0.0
 47
495.0
 48
0.0
140
3.0
141
0.0
142
0.0
143
25.4
144
1.0
145
0.0
146
1.0
147
0.5
 71
     0
 72
     0
 73
     0
 74
     0
 75
     0
 76
     0
 77
     3
 78
     8
170
     0
171
     2
172
     1
173
     1
174
     1
175
     0
176
     0
177
     0
178
     0
270
     2
271
     4
272
     4
273
     2
274
     2
340
F0
275
     0
280
     0
281
     0
282
     0
283
     1
284
     0
285
     0
286
     0
287
     3
288
     0
  0
ENDTAB
  0
TABLE
  2
BLOCK_RECORD
  5
C8
330
0
100
AcDbSymbolTable
 70
    15
  0
BLOCK_RECORD
  5
DF
102
{ACAD_XDICTIONARY
360
7E07
102
}
330
C8
100
AcDbSymbolTableRecord
100
AcDbBlockTableRecord
  2
*MODEL_SPACE
  0
BLOCK_RECORD
  5
DC
102
{ACAD_XDICTIONARY
360
7E05
102
}
330
C8
100
AcDbSymbolTableRecord
100
AcDbBlockTableRecord
  2
*PAPER_SPACE
  0
BLOCK_RECORD
  5
E3
330
C8
100
AcDbSymbolTableRecord
100
AcDbBlockTableRecord
  2
ARROW
  0
BLOCK_RECORD
  5
145
330
C8
100
AcDbSymbolTableRecord
100
AcDbBlockTableRecord
  2
_OPEN
  0
BLOCK_RECORD
  5
7C0A
330
C8
100
AcDbSymbolTableRecord
100
AcDbBlockTableRecord
  2
WAKU
  0
BLOCK_RECORD
  5
7C12
330
C8
100
AcDbSymbolTableRecord
100
AcDbBlockTableRecord
  2
S3
  0
BLOCK_RECORD
  5
7CE4
330
C8
100
AcDbSymbolTableRecord
100
AcDbBlockTableRecord
  2
*D4
  0
BLOCK_RECORD
  5
7D08
330
C8
100
AcDbSymbolTableRecord
100
AcDbBlockTableRecord
  2
*D5
  0
BLOCK_RECORD
  5
7D14
330
C8
100
AcDbSymbolTableRecord
100
AcDbBlockTableRecord
  2
*D6
  0
BLOCK_RECORD
  5
7D2D
330
C8
100
AcDbSymbolTableRecord
100
AcDbBlockTableRecord
  2
*D7
  0
BLOCK_RECORD
  5
7D49
330
C8
100
AcDbSymbolTableRecord
100
AcDbBlockTableRecord
  2
*D9
  0
BLOCK_RECORD
  5
7D56
330
C8
100
AcDbSymbolTableRecord
100
AcDbBlockTableRecord
  2
*D10
  0
BLOCK_RECORD
  5
7D63
330
C8
100
AcDbSymbolTableRecord
100
AcDbBlockTableRecord
  2
*D11
  0
BLOCK_RECORD
  5
7D86
330
C8
100
AcDbSymbolTableRecord
100
AcDbBlockTableRecord
  2
*D12
  0
BLOCK_RECORD
  5
7D9E
330
C8
100
AcDbSymbolTableRecord
100
AcDbBlockTableRecord
  2
*D13
  0
BLOCK_RECORD
  5
7DC2
330
C8
100
AcDbSymbolTableRecord
100
AcDbBlockTableRecord
  2
*D14
  0
ENDTAB
  0
ENDSEC
  0
SECTION
  2
BLOCKS
  0
BLOCK
  5
10F
330
DF
100
AcDbEntity
  8
0
100
AcDbBlockBegin
  2
*MODEL_SPACE
 70
     0
 10
0.0
 20
0.0
 30
0.0
  3
*MODEL_SPACE
  1

  0
ENDBLK
  5
110
330
DF
100
AcDbEntity
  8
0
100
AcDbBlockEnd
  0
BLOCK
  5
10D
330
DC
100
AcDbEntity
 67
     1
  8
0
100
AcDbBlockBegin
  2
*PAPER_SPACE
 70
     0
 10
0.0
 20
0.0
 30
0.0
  3
*PAPER_SPACE
  1

  0
ENDBLK
  5
10E
330
DC
100
AcDbEntity
 67
     1
  8
0
100
AcDbBlockEnd
  0
BLOCK
  5
1
330
E3
100
AcDbEntity
  8
0
100
AcDbBlockBegin
  2
ARROW
 70
     0
 10
1.0
 20
0.5
 30
0.0
  3
ARROW
  1

  0
LINE
  5
2
330
E3
100
AcDbEntity
  8
0
100
AcDbLine
 10
1.0
 20
0.5
 30
0.0
 11
-0.5000000000000214
 21
0.0980762113533018
 31
0.0
  0
LINE
  5
3
330
E3
100
AcDbEntity
  8
0
100
AcDbLine
 10
0.0
 20
0.5
 30
0.0
 11
1.0
 21
0.5
 31
0.0
  0
LINE
  5
4
330
E3
100
AcDbEntity
  8
0
100
AcDbLine
 10
1.0
 20
0.5
 30
0.0
 11
-0.4999999999999574
 21
0.9019237886467408
 31
0.0
  0
ENDBLK
  5
5
330
E3
100
AcDbEntity
  8
0
100
AcDbBlockEnd
  0
BLOCK
  5
149
330
145
100
AcDbEntity
  8
0
100
AcDbBlockBegin
  2
_OPEN
 70
     0
 10
0.0
 20
0.0
 30
0.0
  3
_OPEN
  1

  0
LINE
  5
146
330
145
100
AcDbEntity
  8
0
  6
BYBLOCK
 62
     0
100
AcDbLine
 10
-1.0
 20
0.1666666666666666
 30
0.0
 11
0.0
 21
0.0
 31
0.0
  0
LINE
  5
147
330
145
100
AcDbEntity
  8
0
  6
BYBLOCK
 62
     0
100
AcDbLine
 10
0.0
 20
0.0
 30
0.0
 11
-1.0
 21
-0.1666666666666666
 31
0.0
  0
LINE
  5
148
330
145
100
AcDbEntity
  8
0
  6
BYBLOCK
 62
     0
100
AcDbLine
 10
0.0
 20
0.0
 30
0.0
 11
-1.0
 21
0.0
 31
0.0
  0
ENDBLK
  5
14A
330
145
100
AcDbEntity
  8
0
100
AcDbBlockEnd
  0
BLOCK
  5
7C0F
330
7C0A
100
AcDbEntity
  8
0
100
AcDbBlockBegin
  2
WAKU
 70
     0
 10
0.0
 20
0.0
 30
0.0
  3
WAKU
  1

  0
LINE
  5
7C0B
330
7C0A
100
AcDbEntity
  8
WAKU
100
AcDbLine
 10
0.0
 20
0.0
 30
0.0
 11
0.0
 21
0.9999999999999998
 31
0.0
  0
LINE
  5
7C0C
330
7C0A
100
AcDbEntity
  8
WAKU
100
AcDbLine
 10
0.999999996
 20
0.0
 30
0.0
 11
0.0
 21
0.0
 31
0.0
  0
LINE
  5
7C0D
330
7C0A
100
AcDbEntity
  8
WAKU
100
AcDbLine
 10
0.0
 20
0.9999999999999998
 30
0.0
 11
0.999999996
 21
0.9999999999999998
 31
0.0
  0
LINE
  5
7C0E
330
7C0A
100
AcDbEntity
  8
WAKU
100
AcDbLine
 10
0.999999996
 20
0.0
 30
0.0
 11
0.999999996
 21
0.9999999999999998
 31
0.0
  0
ENDBLK
  5
7C10
330
7C0A
100
AcDbEntity
  8
0
100
AcDbBlockEnd
  0
BLOCK
  5
7CDE
330
7C12
100
AcDbEntity
  8
0
100
AcDbBlockBegin
  2
S3
 70
     0
 10
0.0
 20
0.0
 30
0.0
  3
S3
  1

  0
LINE
  5
7C13
330
7C12
100
AcDbEntity
  8
WAKU
100
AcDbLine
 10
3.0
 20
269.0
 30
0.0
 11
384.0
 21
269.0
 31
0.0
  0
LINE
  5
7C14
330
7C12
100
AcDbEntity
  8
WAKU
100
AcDbLine
 10
384.0
 20
6.0
 30
0.0
 11
3.0
 21
6.0
 31
0.0
  0
LINE
  5
7C15
330
7C12
100
AcDbEntity
  8
WAKU
100
AcDbLine
 10
3.0
 20
6.0
 30
0.0
 11
3.0
 21
269.0
 31
0.0
  0
TEXT
  5
7C16
330
7C12
100
AcDbEntity
  8
TEXT
100
AcDbText
 10
72.09999999999999
 20
7.5
 30
0.0
 40
3.0
  1
 年 月 日
  7
K
 72
     4
 11
80.5
 21
9.0
 31
0.0
100
AcDbText
  0
LINE
  5
7C17
330
7C12
100
AcDbEntity
  8
SUNPOU
100
AcDbLine
 10
106.0
 20
12.0
 30
0.0
 11
13.0
 21
12.0
 31
0.0
  0
LINE
  5
7C18
330
7C12
100
AcDbEntity
  8
SUNPOU
100
AcDbLine
 10
13.0
 20
18.0
 30
0.0
 11
106.0
 21
18.0
 31
0.0
  0
LINE
  5
7C19
330
7C12
100
AcDbEntity
  8
SUNPOU
100
AcDbLine
 10
106.0
 20
24.0
 30
0.0
 11
13.0
 21
24.0
 31
0.0
  0
LINE
  5
7C1A
330
7C12
100
AcDbEntity
  8
SUNPOU
100
AcDbLine
 10
13.0
 20
12.0
 30
0.0
 11
106.0
 21
12.0
 31
0.0
  0
LINE
  5
7C1B
330
7C12
100
AcDbEntity
  8
SUNPOU
100
AcDbLine
 10
106.0
 20
18.0
 30
0.0
 11
13.0
 21
18.0
 31
0.0
  0
LINE
  5
7C1C
330
7C12
100
AcDbEntity
  8
SUNPOU
100
AcDbLine
 10
13.0
 20
24.0
 30
0.0
 11
106.0
 21
24.0
 31
0.0
  0
LINE
  5
7C1D
330
7C12
100
AcDbEntity
  8
SUNPOU
100
AcDbLine
 10
106.0
 20
30.0
 30
0.0
 11
3.0
 21
30.0
 31
0.0
  0
TEXT
  5
7C1E
330
7C12
100
AcDbEntity
  8
TEXT
100
AcDbText
 10
4.299999999999999
 20
7.5
 30
0.0
 40
3.0
  1
記号
  7
K
 72
     4
 11
7.5
 21
9.0
 31
0.0
100
AcDbText
  0
LINE
  5
7C1F
330
7C12
100
AcDbEntity
  8
SUNPOU
100
AcDbLine
 10
13.0
 20
6.0
 30
0.0
 11
13.0
 21
30.0
 31
0.0
  0
LINE
  5
7C20
330
7C12
100
AcDbEntity
  8
SUNPOU
100
AcDbLine
 10
12.0
 20
30.0
 30
0.0
 11
12.0
 21
6.0
 31
0.0
  0
LINE
  5
7C21
330
7C12
100
AcDbEntity
  8
SUNPOU
100
AcDbLine
 10
12.0
 20
6.0
 30
0.0
 11
12.0
 21
30.0
 31
0.0
  0
LINE
  5
7C22
330
7C12
100
AcDbEntity
  8
SUNPOU
100
AcDbLine
 10
13.0
 20
30.0
 30
0.0
 11
13.0
 21
6.0
 31
0.0
  0
LINE
  5
7C23
330
7C12
100
AcDbEntity
  8
SUNPOU
100
AcDbLine
 10
7.5
 20
24.0
 30
0.0
 11
3.0
 21
18.0
 31
0.0
  0
LINE
  5
7C24
330
7C12
100
AcDbEntity
  8
SUNPOU
100
AcDbLine
 10
7.5
 20
24.0
 30
0.0
 11
12.0
 21
18.0
 31
0.0
  0
LINE
  5
7C25
330
7C12
100
AcDbEntity
  8
SUNPOU
100
AcDbLine
 10
7.5
 20
18.0
 30
0.0
 11
3.0
 21
12.0
 31
0.0
  0
LINE
  5
7C26
330
7C12
100
AcDbEntity
  8
SUNPOU
100
AcDbLine
 10
3.0
 20
18.0
 30
0.0
 11
12.0
 21
18.0
 31
0.0
  0
LINE
  5
7C27
330
7C12
100
AcDbEntity
  8
SUNPOU
100
AcDbLine
 10
12.0
 20
12.0
 30
0.0
 11
3.0
 21
12.0
 31
0.0
  0
LINE
  5
7C28
330
7C12
100
AcDbEntity
  8
SUNPOU
100
AcDbLine
 10
12.0
 20
12.0
 30
0.0
 11
3.0
 21
12.0
 31
0.0
  0
LINE
  5
7C29
330
7C12
100
AcDbEntity
  8
SUNPOU
100
AcDbLine
 10
12.0
 20
18.0
 30
0.0
 11
3.0
 21
18.0
 31
0.0
  0
LINE
  5
7C2A
330
7C12
100
AcDbEntity
  8
SUNPOU
100
AcDbLine
 10
7.5
 20
18.0
 30
0.0
 11
12.0
 21
12.0
 31
0.0
  0
LINE
  5
7C2B
330
7C12
100
AcDbEntity
  8
SUNPOU
100
AcDbLine
 10
7.5
 20
30.0
 30
0.0
 11
3.0
 21
24.0
 31
0.0
  0
LINE
  5
7C2C
330
7C12
100
AcDbEntity
  8
SUNPOU
100
AcDbLine
 10
12.0
 20
24.0
 30
0.0
 11
3.0
 21
24.0
 31
0.0
  0
LINE
  5
7C2D
330
7C12
100
AcDbEntity
  8
SUNPOU
100
AcDbLine
 10
12.0
 20
24.0
 30
0.0
 11
3.0
 21
24.0
 31
0.0
  0
LINE
  5
7C2E
330
7C12
100
AcDbEntity
  8
SUNPOU
100
AcDbLine
 10
12.0
 20
24.0
 30
0.0
 11
7.5
 21
30.0
 31
0.0
  0
TEXT
  5
7C2F
330
7C12
100
AcDbEntity
  8
TEXT
100
AcDbText
 10
56.2
 20
7.5
 30
0.0
 40
3.0
  1
設変番号
  7
K
 72
     4
 11
63.0
 21
9.0
 31
0.0
100
AcDbText
  0
TEXT
  5
7C30
330
7C12
100
AcDbEntity
  8
TEXT
100
AcDbText
 10
20.9
 20
7.5
 30
0.0
 40
3.0
  1
変更内容・理由
  7
K
 72
     4
 11
33.0
 21
9.0
 31
0.0
100
AcDbText
  0
LINE
  5
7C31
330
7C12
100
AcDbEntity
  8
SUNPOU
100
AcDbLine
 10
73.0
 20
6.0
 30
0.0
 11
73.0
 21
30.0
 31
0.0
  0
LINE
  5
7C32
330
7C12
100
AcDbEntity
  8
SUNPOU
100
AcDbLine
 10
53.0
 20
30.0
 30
0.0
 11
53.0
 21
6.0
 31
0.0
  0
LINE
  5
7C33
330
7C12
100
AcDbEntity
  8
WAKU
100
AcDbLine
 10
3.0
 20
139.0
 30
0.0
 11
0.0
 21
139.0
 31
0.0
  0
TEXT
  5
7C34
330
7C12
100
AcDbEntity
  8
TEXT
100
AcDbText
 10
98.40000000000001
 20
7.5
 30
0.0
 40
3.0
  1
検図
  7
K
 72
     4
 11
101.5
 21
9.0
 31
0.0
100
AcDbText
  0
TEXT
  5
7C35
330
7C12
100
AcDbEntity
  8
TEXT
100
AcDbText
 10
89.36428571428571
 20
7.5
 30
0.0
 40
3.0
  1
担当
  7
K
 72
     4
 11
92.5
 21
9.0
 31
0.0
100
AcDbText
  0
LINE
  5
7C36
330
7C12
100
AcDbEntity
  8
SUNPOU
100
AcDbLine
 10
106.0
 20
30.0
 30
0.0
 11
106.0
 21
6.0
 31
0.0
  0
LINE
  5
7C37
330
7C12
100
AcDbEntity
  8
SUNPOU
100
AcDbLine
 10
97.0
 20
6.0
 30
0.0
 11
97.0
 21
30.0
 31
0.0
  0
LINE
  5
7C38
330
7C12
100
AcDbEntity
  8
SUNPOU
100
AcDbLine
 10
88.0
 20
30.0
 30
0.0
 11
88.0
 21
6.0
 31
0.0
  0
LINE
  5
7C39
330
7C12
100
AcDbEntity
  8
WAKU
100
AcDbLine
 10
63.0
 20
279.0
 30
0.0
 11
3.0
 21
279.0
 31
0.0
  0
LINE
  5
7C3A
330
7C12
100
AcDbEntity
  8
WAKU
100
AcDbLine
 10
3.0
 20
269.0
 30
0.0
 11
3.0
 21
279.0
 31
0.0
  0
LINE
  5
7C3B
330
7C12
100
AcDbEntity
  8
SUNPOU
100
AcDbLine
 10
51.0
 20
269.0
 30
0.0
 11
51.0
 21
279.0
 31
0.0
  0
TEXT
  5
7C3C
330
7C12
100
AcDbEntity
  8
TEXT
100
AcDbText
 10
60.1842957707867
 20
275.4965050308843
 30
0.0
 40
3.0
  1
図番
 50
180.0
  7
K
 72
     4
 11
56.88429577078671
 21
273.9965050308843
 31
0.0
100
AcDbText
  0
LINE
  5
7C3D
330
7C12
100
AcDbEntity
  8
WAKU
100
AcDbLine
 10
63.0
 20
279.0
 30
0.0
 11
63.0
 21
269.0
 31
0.0
  0
LINE
  5
7C3E
330
7C12
100
AcDbEntity
  8
WAKU
100
AcDbLine
 10
384.0
 20
269.0
 30
0.0
 11
384.0
 21
6.0
 31
0.0
  0
TEXT
  5
7C3F
330
7C12
100
AcDbEntity
  8
TEXT
100
AcDbText
 10
385.1333333333333
 20
144.6013421640234
 30
0.0
 40
4.0
  1
本
  7
K
 72
     1
 11
387.0
 21
146.6013421640234
 31
0.0
100
AcDbText
 73
     2
  0
TEXT
  5
7C40
330
7C12
100
AcDbEntity
  8
TEXT
100
AcDbText
 10
329.1072754745071
 20
34.0
 30
0.0
 40
3.0
  1
三 角 法
  7
K
100
AcDbText
  0
LINE
  5
7C41
330
7C12
100
AcDbEntity
  8
WAKU
100
AcDbLine
 10
324.0
 20
19.0
 30
0.0
 11
384.0
 21
19.0
 31
0.0
  0
LINE
  5
7C42
330
7C12
100
AcDbEntity
  8
WAKU
100
AcDbLine
 10
384.0
 20
32.0
 30
0.0
 11
324.0
 21
32.0
 31
0.0
  0
LINE
  5
7C43
330
7C12
100
AcDbEntity
  8
WAKU
100
AcDbLine
 10
324.0
 20
39.0
 30
0.0
 11
384.0
 21
39.0
 31
0.0
  0
TEXT
  5
7C44
330
7C12
100
AcDbEntity
  8
TEXT
100
AcDbText
 10
338.4611183004224
 20
10.0
 30
0.0
 40
3.5
  1
中部コーポレーション
  7
K
100
AcDbText
  0
TEXT
  5
7C45
330
7C12
100
AcDbEntity
  8
TEXT
100
AcDbText
 10
326.5466508537902
 20
57.23202258979018
 30
0.0
 40
3.0
  1
備                    考
  7
K
 72
     1
 11
347.7466508537902
 21
58.73202258979017
 31
0.0
100
AcDbText
 73
     2
  0
LINE
  5
7C46
330
7C12
100
AcDbEntity
  8
WAKU
100
AcDbLine
 10
287.0
 20
55.0
 30
0.0
 11
349.0
 21
55.0
 31
0.0
  0
LINE
  5
7C47
330
7C12
100
AcDbEntity
  8
TEXT
100
AcDbLine
 10
211.0
 20
83.0
 30
0.0
 11
384.0
 21
83.0
 31
0.0
  0
LINE
  5
7C48
330
7C12
100
AcDbEntity
  8
SUNPOU
100
AcDbLine
 10
384.0
 20
69.0
 30
0.0
 11
211.0
 21
69.0
 31
0.0
  0
LINE
  5
7C49
330
7C12
100
AcDbEntity
  8
SUNPOU
100
AcDbLine
 10
211.0
 20
62.0
 30
0.0
 11
384.0
 21
62.0
 31
0.0
  0
LINE
  5
7C4A
330
7C12
100
AcDbEntity
  8
TEXT
100
AcDbLine
 10
211.0
 20
76.00315013427092
 30
0.0
 11
384.0
 21
76.00315013427092
 31
0.0
  0
LINE
  5
7C4B
330
7C12
100
AcDbEntity
  8
SUNPOU
100
AcDbLine
 10
308.0
 20
83.0
 30
0.0
 11
308.0
 21
55.0
 31
0.0
  0
LINE
  5
7C4C
330
7C12
100
AcDbEntity
  8
SUNPOU
100
AcDbLine
 10
263.0
 20
83.0
 30
0.0
 11
263.0
 21
55.0
 31
0.0
  0
LINE
  5
7C4D
330
7C12
100
AcDbEntity
  8
SUNPOU
100
AcDbLine
 10
218.0
 20
83.0
 30
0.0
 11
218.0
 21
55.0
 31
0.0
  0
LINE
  5
7C4E
330
7C12
100
AcDbEntity
  8
SUNPOU
100
AcDbLine
 10
211.0
 20
83.0
 30
0.0
 11
211.0
 21
55.0
 31
0.0
  0
LINE
  5
7C4F
330
7C12
100
AcDbEntity
  8
WAKU
100
AcDbLine
 10
287.0
 20
55.0
 30
0.0
 11
211.0
 21
55.0
 31
0.0
  0
TEXT
  5
7C50
330
7C12
100
AcDbEntity
  8
TEXT
100
AcDbText
 10
220.8767108238105
 20
3.0
 30
0.0
 40
2.6
  1
複写図面配布先： 購買  →発注先 フード生産技術 フード品質保証 開発部
  7
K
100
AcDbText
  0
TEXT
  5
7C51
330
7C12
100
AcDbEntity
  8
TEXT
100
AcDbText
 10
274.5
 20
30.16944230720361
 30
0.0
 40
2.0
  1
0.1
 41
0.8
  7
K
 11
274.5
 21
31.16944230720361
 31
0.0
100
AcDbText
 73
     2
  0
TEXT
  5
7C52
330
7C12
100
AcDbEntity
  8
TEXT
100
AcDbText
 10
274.5
 20
26.29722041378767
 30
0.0
 40
2.0
  1
0.1
 41
0.8
  7
K
 11
274.5
 21
27.29722041378767
 31
0.0
100
AcDbText
 73
     2
  0
TEXT
  5
7C53
330
7C12
100
AcDbEntity
  8
TEXT
100
AcDbText
 10
274.5
 20
22.42499852037173
 30
0.0
 40
2.0
  1
0.2
 41
0.8
  7
K
 11
274.5
 21
23.42499852037172
 31
0.0
100
AcDbText
 73
     2
  0
TEXT
  5
7C54
330
7C12
100
AcDbEntity
  8
TEXT
100
AcDbText
 10
274.5
 20
18.55277662695579
 30
0.0
 40
2.0
  1
0.3
 41
0.8
  7
K
 11
274.5
 21
19.55277662695579
 31
0.0
100
AcDbText
 73
     2
  0
TEXT
  5
7C55
330
7C12
100
AcDbEntity
  8
TEXT
100
AcDbText
 10
274.5
 20
14.68055473353985
 30
0.0
 40
2.0
  1
0.5
 41
0.8
  7
K
 11
274.5
 21
15.68055473353985
 31
0.0
100
AcDbText
 73
     2
  0
TEXT
  5
7C56
330
7C12
100
AcDbEntity
  8
TEXT
100
AcDbText
 10
274.5
 20
10.80833284012391
 30
0.0
 40
2.0
  1
0.8
 41
0.8
  7
K
 11
274.5
 21
11.8083328401239
 31
0.0
100
AcDbText
 73
     2
  0
TEXT
  5
7C57
330
7C12
100
AcDbEntity
  8
TEXT
100
AcDbText
 10
275.0857142857142
 20
33.50555325391157
 30
0.0
 40
2.7
  1
K
  7
K
 72
     1
 11
276.5
 21
34.85555325391158
 31
0.0
100
AcDbText
 73
     2
  0
TEXT
  5
7C58
330
7C12
100
AcDbEntity
  8
TEXT
100
AcDbText
 10
274.5
 20
6.93611094670797
 30
0.0
 40
2.0
  1
1.2
 41
0.8
  7
K
 11
274.5
 21
7.93611094670797
 31
0.0
100
AcDbText
 73
     2
  0
LINE
  5
7C59
330
7C12
100
AcDbEntity
  8
TEXT
100
AcDbLine
 10
245.0
 20
33.10555325391158
 30
0.0
 11
287.0
 21
33.10555325391158
 31
0.0
  0
LINE
  5
7C5A
330
7C12
100
AcDbEntity
  8
TEXT
100
AcDbLine
 10
245.0
 20
29.23333136049564
 30
0.0
 11
287.0
 21
29.23333136049564
 31
0.0
  0
LINE
  5
7C5B
330
7C12
100
AcDbEntity
  8
TEXT
100
AcDbLine
 10
287.0
 20
25.3611094670797
 30
0.0
 11
245.0
 21
25.3611094670797
 31
0.0
  0
LINE
  5
7C5C
330
7C12
100
AcDbEntity
  8
TEXT
100
AcDbLine
 10
245.0
 20
21.48888757366376
 30
0.0
 11
287.0
 21
21.48888757366376
 31
0.0
  0
LINE
  5
7C5D
330
7C12
100
AcDbEntity
  8
TEXT
100
AcDbLine
 10
287.0
 20
17.61666568024782
 30
0.0
 11
245.0
 21
17.61666568024782
 31
0.0
  0
LINE
  5
7C5E
330
7C12
100
AcDbEntity
  8
TEXT
100
AcDbLine
 10
245.0
 20
13.74444378683188
 30
0.0
 11
287.0
 21
13.74444378683188
 31
0.0
  0
LINE
  5
7C5F
330
7C12
100
AcDbEntity
  8
TEXT
100
AcDbLine
 10
287.0
 20
9.87222189341594
 30
0.0
 11
245.0
 21
9.87222189341594
 31
0.0
  0
LINE
  5
7C60
330
7C12
100
AcDbEntity
  8
WAKU
100
AcDbLine
 10
287.0
 20
36.60555325391158
 30
0.0
 11
211.0
 21
36.60555325391158
 31
0.0
  0
LINE
  5
7C61
330
7C12
100
AcDbEntity
  8
TEXT
100
AcDbLine
 10
211.0
 20
48.8685177513039
 30
0.0
 11
287.0
 21
48.8685177513039
 31
0.0
  0
LINE
  5
7C62
330
7C12
100
AcDbEntity
  8
TEXT
100
AcDbLine
 10
287.0
 20
42.73703550260768
 30
0.0
 11
211.0
 21
42.73703550260768
 31
0.0
  0
LINE
  5
7C63
330
7C12
100
AcDbEntity
  8
TEXT
100
AcDbLine
 10
273.0
 20
6.0
 30
0.0
 11
273.0
 21
36.60555325391158
 31
0.0
  0
LINE
  5
7C64
330
7C12
100
AcDbEntity
  8
SUNPOU
100
AcDbLine
 10
238.0
 20
30.75
 30
0.0
 11
238.0
 21
6.0
 31
0.0
  0
LINE
  5
7C65
330
7C12
100
AcDbEntity
  8
TEXT
100
AcDbLine
 10
245.0
 20
36.60555325391158
 30
0.0
 11
245.0
 21
6.0
 31
0.0
  0
LINE
  5
7C66
330
7C12
100
AcDbEntity
  8
TEXT
100
AcDbLine
 10
266.0
 20
36.60555325391158
 30
0.0
 11
266.0
 21
6.0
 31
0.0
  0
TEXT
  5
7C67
330
7C12
100
AcDbEntity
  8
TEXT
100
AcDbText
 10
220.8767108238105
 20
0.1999999999999886
 30
0.0
 40
2.399999999999999
  1
（必要に応じて追加・抹消）
  7
K
100
AcDbText
  0
TEXT
  5
7C68
330
7C12
100
AcDbEntity
  8
TEXT
100
AcDbText
 10
212.5
 20
6.887403254739353
 30
0.0
 40
2.0
  1
～
  7
K
 11
212.5
 21
7.887403254739353
 31
0.0
100
AcDbText
 73
     2
  0
TEXT
  5
7C69
330
7C12
100
AcDbEntity
  8
TEXT
100
AcDbText
 10
255.5587236705651
 20
6.93611094670797
 30
0.0
 40
2.0
  1
2000以下
 41
0.8
  7
K
 72
     2
 11
265.0672950991365
 21
7.93611094670797
 31
0.0
100
AcDbText
 73
     2
  0
TEXT
  5
7C6A
330
7C12
100
AcDbEntity
  8
TEXT
100
AcDbText
 10
245.7760645443253
 20
6.93611094670797
 30
0.0
 40
2.0
  1
1000ｦｺｴ
 41
0.8
  7
K
 72
     2
 11
254.4313026395634
 21
7.93611094670797
 31
0.0
100
AcDbText
 73
     2
  0
TEXT
  5
7C6B
330
7C12
100
AcDbEntity
  8
TEXT
100
AcDbText
 10
267.5
 20
6.93611094670797
 30
0.0
 40
2.0
  1
0.5
 41
0.8
  7
K
 11
267.5
 21
7.93611094670797
 31
0.0
100
AcDbText
 73
     2
  0
TEXT
  5
7C6C
330
7C12
100
AcDbEntity
  8
TEXT
100
AcDbText
 10
239.3571428571428
 20
10.24345914221055
 30
0.0
 40
1.5
  1
mm
  7
K
 72
     1
 11
241.5
 21
10.24345914221055
 31
0.0
100
AcDbText
  0
TEXT
  5
7C6D
330
7C12
100
AcDbEntity
  8
TEXT
100
AcDbText
 10
212.5
 20
32.14425883203125
 30
0.0
 40
3.0
  1
標準加工アラサ
  7
K
 72
     4
 11
224.5
 21
33.64425883203125
 31
0.0
100
AcDbText
  0
LINE
  5
7C6E
330
7C12
100
AcDbEntity
  8
SUNPOU
100
AcDbLine
 10
238.0
 20
55.0
 30
0.0
 11
238.0
 21
30.75
 31
0.0
  0
LINE
  5
7C6F
330
7C12
100
AcDbEntity
  8
TEXT
100
AcDbLine
 10
211.0
 20
30.68296441015093
 30
0.0
 11
238.0
 21
30.68296441015093
 31
0.0
  0
LINE
  5
7C70
330
7C12
100
AcDbEntity
  8
TEXT
100
AcDbLine
 10
211.0
 20
24.87403254739342
 30
0.0
 11
238.0
 21
24.87403254739342
 31
0.0
  0
TEXT
  5
7C71
330
7C12
100
AcDbEntity
  8
TEXT
100
AcDbText
 10
212.82
 20
26.52630198798243
 30
0.0
 40
3.0
  1
(標準外ﾊ指定ﾉｺﾄ)
 41
0.8
  7
K
 72
     4
 11
224.5
 21
27.81201627369671
 31
0.0
100
AcDbText
  0
TEXT
  5
7C72
330
7C12
100
AcDbEntity
  8
TEXT
100
AcDbText
 10
212.5
 20
18.21182278317542
 30
0.0
 40
2.0
  1
▽▽▽
  7
K
 11
212.5
 21
19.21182278317542
 31
0.0
100
AcDbText
 73
     2
  0
TEXT
  5
7C73
330
7C12
100
AcDbEntity
  8
TEXT
100
AcDbText
 10
212.5
 20
14.43701627369671
 30
0.0
 40
2.0
  1
▽▽
  7
K
 11
212.5
 21
15.43701627369671
 31
0.0
100
AcDbText
 73
     2
  0
TEXT
  5
7C74
330
7C12
100
AcDbEntity
  8
TEXT
100
AcDbText
 10
212.5
 20
10.662209764218
 30
0.0
 40
2.0
  1
▽
  7
K
 11
212.5
 21
11.662209764218
 31
0.0
100
AcDbText
 73
     2
  0
TEXT
  5
7C75
330
7C12
100
AcDbEntity
  8
TEXT
100
AcDbText
 10
212.5
 20
21.98662929265407
 30
0.0
 40
2.0
  1
▽▽▽▽
  7
K
 11
212.5
 21
22.98662929265407
 31
0.0
100
AcDbText
 73
     2
  0
TEXT
  5
7C76
330
7C12
100
AcDbEntity
  8
TEXT
100
AcDbText
 10
240.24
 20
18.90873700804877
 30
0.0
 40
2.7
  1
法
  7
K
 72
     1
 11
241.5
 21
18.90873700804877
 31
0.0
100
AcDbText
  0
TEXT
  5
7C77
330
7C12
100
AcDbEntity
  8
TEXT
100
AcDbText
 10
229.1666666666666
 20
10.662209764218
 30
0.0
 40
2.0
  1
100Z
  7
K
 72
     2
 11
236.5
 21
11.662209764218
 31
0.0
100
AcDbText
 73
     2
  0
TEXT
  5
7C78
330
7C12
100
AcDbEntity
  8
TEXT
100
AcDbText
 10
231.0714285714285
 20
14.43701627369671
 30
0.0
 40
2.0
  1
25Z
  7
K
 72
     2
 11
236.5
 21
15.43701627369671
 31
0.0
100
AcDbText
 73
     2
  0
TEXT
  5
7C79
330
7C12
100
AcDbEntity
  8
TEXT
100
AcDbText
 10
230.1190476190476
 20
18.21182278317542
 30
0.0
 40
2.0
  1
6.3Z
  7
K
 72
     2
 11
236.5
 21
19.21182278317542
 31
0.0
100
AcDbText
 73
     2
  0
TEXT
  5
7C7A
330
7C12
100
AcDbEntity
  8
TEXT
100
AcDbText
 10
237.9523809523809
 20
11.16190406596939
 30
0.0
 40
2.0
  1
(
  7
K
 72
     2
 11
239.0
 21
12.16190406596939
 31
0.0
100
AcDbText
 73
     2
  0
TEXT
  5
7C7B
330
7C12
100
AcDbEntity
  8
TEXT
100
AcDbText
 10
240.5666666666666
 20
12.16190406596939
 30
0.0
 40
2.0
  1
±
  7
K
 72
     1
 11
241.5
 21
12.16190406596939
 31
0.0
100
AcDbText
  0
TEXT
  5
7C7C
330
7C12
100
AcDbEntity
  8
TEXT
100
AcDbText
 10
240.24
 20
15.80873700804875
 30
0.0
 40
2.7
  1
差
  7
K
 72
     1
 11
241.5
 21
15.80873700804875
 31
0.0
100
AcDbText
  0
TEXT
  5
7C7D
330
7C12
100
AcDbEntity
  8
TEXT
100
AcDbText
 10
230.1190476190476
 20
21.98662929265407
 30
0.0
 40
2.0
  1
0.8Z
  7
K
 72
     2
 11
236.5
 21
22.98662929265407
 31
0.0
100
AcDbText
 73
     2
  0
TEXT
  5
7C7E
330
7C12
100
AcDbEntity
  8
TEXT
100
AcDbText
 10
240.24
 20
25.10873700804876
 30
0.0
 40
2.7
  1
通
  7
K
 72
     1
 11
241.5
 21
25.10873700804876
 31
0.0
100
AcDbText
  0
TEXT
  5
7C7F
330
7C12
100
AcDbEntity
  8
TEXT
100
AcDbText
 10
240.24
 20
22.00873700804874
 30
0.0
 40
2.7
  1
寸
  7
K
 72
     1
 11
241.5
 21
22.00873700804874
 31
0.0
100
AcDbText
  0
TEXT
  5
7C80
330
7C12
100
AcDbEntity
  8
TEXT
100
AcDbText
 10
240.24
 20
28.20873700804872
 30
0.0
 40
2.7
  1
普
  7
K
 72
     1
 11
241.5
 21
28.20873700804872
 31
0.0
100
AcDbText
  0
TEXT
  5
7C81
330
7C12
100
AcDbEntity
  8
TEXT
100
AcDbText
 10
214.0657864606291
 20
50.43425887565195
 30
0.0
 40
3.0
  1
表面処理
  7
K
 11
214.0657864606291
 21
51.93425887565195
 31
0.0
100
AcDbText
 73
     2
  0
TEXT
  5
7C82
330
7C12
100
AcDbEntity
  8
TEXT
100
AcDbText
 10
214.0657864606291
 20
38.17129437825963
 30
0.0
 40
3.0
  1
適用規格など
  7
K
 11
214.0657864606291
 21
39.67129437825963
 31
0.0
100
AcDbText
 73
     2
  0
TEXT
  5
7C83
330
7C12
100
AcDbEntity
  8
TEXT
100
AcDbText
 10
214.0657864606291
 20
44.30277662695579
 30
0.0
 40
3.0
  1
色調
  7
K
 11
214.0657864606291
 21
45.80277662695579
 31
0.0
100
AcDbText
 73
     2
  0
TEXT
  5
7C84
330
7C12
100
AcDbEntity
  8
TEXT
100
AcDbText
 10
258.6063427181841
 20
22.42499852037173
 30
0.0
 40
2.0
  1
30以下
 41
0.8
  7
K
 72
     2
 11
265.0672950991365
 21
23.42499852037172
 31
0.0
100
AcDbText
 73
     2
  0
TEXT
  5
7C85
330
7C12
100
AcDbEntity
  8
TEXT
100
AcDbText
 10
257.0825331943746
 20
18.55277662695579
 30
0.0
 40
2.0
  1
120以下
 41
0.8
  7
K
 72
     2
 11
265.0672950991365
 21
19.55277662695579
 31
0.0
100
AcDbText
 73
     2
  0
TEXT
  5
7C86
330
7C12
100
AcDbEntity
  8
TEXT
100
AcDbText
 10
255.5587236705651
 20
10.80833284012391
 30
0.0
 40
2.0
  1
1000以下
 41
0.8
  7
K
 72
     2
 11
265.0672950991365
 21
11.8083328401239
 31
0.0
100
AcDbText
 73
     2
  0
TEXT
  5
7C87
330
7C12
100
AcDbEntity
  8
TEXT
100
AcDbText
 10
257.0825331943746
 20
14.68055473353985
 30
0.0
 40
2.0
  1
315以下
 41
0.8
  7
K
 72
     2
 11
265.0672950991365
 21
15.68055473353985
 31
0.0
100
AcDbText
 73
     2
  0
TEXT
  5
7C88
330
7C12
100
AcDbEntity
  8
TEXT
100
AcDbText
 10
247.2998740681349
 20
10.80833284012391
 30
0.0
 40
2.0
  1
315ｦｺｴ
 41
0.8
  7
K
 72
     2
 11
254.4313026395634
 21
11.8083328401239
 31
0.0
100
AcDbText
 73
     2
  0
TEXT
  5
7C89
330
7C12
100
AcDbEntity
  8
TEXT
100
AcDbText
 10
247.2998740681349
 20
14.68055473353985
 30
0.0
 40
2.0
  1
120ｦｺｴ
 41
0.8
  7
K
 72
     2
 11
254.4313026395634
 21
15.68055473353985
 31
0.0
100
AcDbText
 73
     2
  0
TEXT
  5
7C8A
330
7C12
100
AcDbEntity
  8
TEXT
100
AcDbText
 10
248.8236835919444
 20
18.55277662695579
 30
0.0
 40
2.0
  1
30ｦｺｴ
 41
0.8
  7
K
 72
     2
 11
254.4313026395634
 21
19.55277662695579
 31
0.0
100
AcDbText
 73
     2
  0
TEXT
  5
7C8B
330
7C12
100
AcDbEntity
  8
TEXT
100
AcDbText
 10
243.6235286514975
 20
11.16190406596939
 30
0.0
 40
2.0
  1
)
  7
K
 11
243.6235286514975
 21
12.16190406596939
 31
0.0
100
AcDbText
 73
     2
  0
TEXT
  5
7C8C
330
7C12
100
AcDbEntity
  8
TEXT
100
AcDbText
 10
250.3474931157539
 20
22.42499852037173
 30
0.0
 40
2.0
  1
6ｦｺｴ
 41
0.8
  7
K
 72
     2
 11
254.4313026395634
 21
23.42499852037172
 31
0.0
100
AcDbText
 73
     2
  0
TEXT
  5
7C8D
330
7C12
100
AcDbEntity
  8
TEXT
100
AcDbText
 10
250.3474931157539
 20
26.29722041378767
 30
0.0
 40
2.0
  1
3ｦｺｴ
 41
0.8
  7
K
 72
     2
 11
254.4313026395634
 21
27.29722041378767
 31
0.0
100
AcDbText
 73
     2
  0
TEXT
  5
7C8E
330
7C12
100
AcDbEntity
  8
TEXT
100
AcDbText
 10
247.2084454967063
 20
30.16944230720361
 30
0.0
 40
2.0
  1
0.5以上
 41
0.8
  7
K
 72
     2
 11
254.4313026395634
 21
31.16944230720361
 31
0.0
100
AcDbText
 73
     2
  0
TEXT
  5
7C8F
330
7C12
100
AcDbEntity
  8
TEXT
100
AcDbText
 10
267.5
 20
14.68055473353985
 30
0.0
 40
2.0
  1
0.2
 41
0.8
  7
K
 11
267.5
 21
15.68055473353985
 31
0.0
100
AcDbText
 73
     2
  0
TEXT
  5
7C90
330
7C12
100
AcDbEntity
  8
TEXT
100
AcDbText
 10
267.5
 20
10.80833284012391
 30
0.0
 40
2.0
  1
0.3
 41
0.8
  7
K
 11
267.5
 21
11.8083328401239
 31
0.0
100
AcDbText
 73
     2
  0
TEXT
  5
7C91
330
7C12
100
AcDbEntity
  8
TEXT
100
AcDbText
 10
267.5
 20
18.55277662695579
 30
0.0
 40
2.0
  1
0.15
 41
0.8
  7
K
 11
267.5
 21
19.55277662695579
 31
0.0
100
AcDbText
 73
     2
  0
TEXT
  5
7C92
330
7C12
100
AcDbEntity
  8
TEXT
100
AcDbText
 10
260.1301522419936
 20
26.29722041378767
 30
0.0
 40
2.0
  1
6以下
 41
0.8
  7
K
 72
     2
 11
265.0672950991365
 21
27.29722041378767
 31
0.0
100
AcDbText
 73
     2
  0
TEXT
  5
7C93
330
7C12
100
AcDbEntity
  8
TEXT
100
AcDbText
 10
260.1301522419936
 20
30.16944230720361
 30
0.0
 40
2.0
  1
3以下
 41
0.8
  7
K
 72
     2
 11
265.0672950991365
 21
31.16944230720361
 31
0.0
100
AcDbText
 73
     2
  0
TEXT
  5
7C94
330
7C12
100
AcDbEntity
  8
TEXT
100
AcDbText
 10
267.5
 20
26.29722041378767
 30
0.0
 40
2.0
  1
0.05
 41
0.8
  7
K
 11
267.5
 21
27.29722041378767
 31
0.0
100
AcDbText
 73
     2
  0
TEXT
  5
7C95
330
7C12
100
AcDbEntity
  8
TEXT
100
AcDbText
 10
267.5
 20
22.42499852037173
 30
0.0
 40
2.0
  1
0.1
 41
0.8
  7
K
 11
267.5
 21
23.42499852037172
 31
0.0
100
AcDbText
 73
     2
  0
TEXT
  5
7C96
330
7C12
100
AcDbEntity
  8
TEXT
100
AcDbText
 10
267.5
 20
30.16944230720361
 30
0.0
 40
2.0
  1
0.05
 41
0.8
  7
K
 11
267.5
 21
31.16944230720361
 31
0.0
100
AcDbText
 73
     2
  0
TEXT
  5
7C97
330
7C12
100
AcDbEntity
  8
TEXT
100
AcDbText
 10
246.95
 20
33.50555325391157
 30
0.0
 40
2.7
  1
呼 ビ 寸 法
  7
K
 72
     1
 11
255.5
 21
34.85555325391158
 31
0.0
100
AcDbText
 73
     2
  0
TEXT
  5
7C98
330
7C12
100
AcDbEntity
  8
TEXT
100
AcDbText
 10
268.6
 20
33.50555325391157
 30
0.0
 40
2.7
  1
J
  7
K
 72
     1
 11
269.4999999999999
 21
34.85555325391158
 31
0.0
100
AcDbText
 73
     2
  0
TEXT
  5
7C99
330
7C12
100
AcDbEntity
  8
TEXT
100
AcDbText
 10
288.0
 20
8.0
 30
0.0
 40
3.0
  1
承認
  7
K
100
AcDbText
  0
LINE
  5
7C9A
330
7C12
100
AcDbEntity
  8
WAKU
100
AcDbLine
 10
324.0
 20
6.0
 30
0.0
 11
324.0
 21
19.0
 31
0.0
  0
LINE
  5
7C9B
330
7C12
100
AcDbEntity
  8
SUNPOU
100
AcDbLine
 10
308.0
 20
39.0
 30
0.0
 11
308.0
 21
6.0
 31
0.0
  0
LINE
  5
7C9C
330
7C12
100
AcDbEntity
  8
WAKU
100
AcDbLine
 10
287.0
 20
6.0
 30
0.0
 11
287.0
 21
39.0
 31
0.0
  0
LINE
  5
7C9D
330
7C12
100
AcDbEntity
  8
SUNPOU
100
AcDbLine
 10
296.0
 20
39.0
 30
0.0
 11
296.0
 21
6.0
 31
0.0
  0
LINE
  5
7C9E
330
7C12
100
AcDbEntity
  8
TEXT
100
AcDbLine
 10
280.0
 20
36.60555325391158
 30
0.0
 11
280.0
 21
6.0
 31
0.0
  0
TEXT
  5
7C9F
330
7C12
100
AcDbEntity
  8
TEXT
100
AcDbText
 10
281.4999999999999
 20
6.93611094670797
 30
0.0
 40
2.0
  1
3
 41
0.8
  7
K
 11
281.4999999999999
 21
7.93611094670797
 31
0.0
100
AcDbText
 73
     2
  0
CIRCLE
  5
7CA0
330
7C12
100
AcDbEntity
  8
JISSEN
100
AcDbCircle
 10
313.3333333333332
 20
7.0
 30
0.0
 40
0.2
  0
CIRCLE
  5
7CA1
330
7C12
100
AcDbEntity
  8
JISSEN
100
AcDbCircle
 10
318.6666666666667
 20
7.0
 30
0.0
 40
0.2
  0
LINE
  5
7CA2
330
7C12
100
AcDbEntity
  8
WAKU
100
AcDbLine
 10
287.0
 20
39.0
 30
0.0
 11
324.0
 21
39.0
 31
0.0
  0
LINE
  5
7CA3
330
7C12
100
AcDbEntity
  8
SUNPOU
100
AcDbLine
 10
287.0
 20
22.5
 30
0.0
 11
324.0
 21
22.5
 31
0.0
  0
LINE
  5
7CA4
330
7C12
100
AcDbEntity
  8
SUNPOU
100
AcDbLine
 10
324.0
 20
14.25
 30
0.0
 11
287.0
 21
14.25
 31
0.0
  0
LINE
  5
7CA5
330
7C12
100
AcDbEntity
  8
SUNPOU
100
AcDbLine
 10
324.0
 20
30.75
 30
0.0
 11
287.0
 21
30.75
 31
0.0
  0
TEXT
  5
7CA6
330
7C12
100
AcDbEntity
  8
TEXT
100
AcDbText
 10
288.0
 20
16.25
 30
0.0
 40
3.0
  1
検図
  7
K
100
AcDbText
  0
TEXT
  5
7CA7
330
7C12
100
AcDbEntity
  8
TEXT
100
AcDbText
 10
288.0
 20
24.5
 30
0.0
 40
3.0
  1
製図
  7
K
100
AcDbText
  0
TEXT
  5
7CA8
330
7C12
100
AcDbEntity
  8
TEXT
100
AcDbText
 10
281.4999999999999
 20
14.68055473353985
 30
0.0
 40
2.0
  1
1.2
 41
0.8
  7
K
 11
281.4999999999999
 21
15.68055473353985
 31
0.0
100
AcDbText
 73
     2
  0
TEXT
  5
7CA9
330
7C12
100
AcDbEntity
  8
TEXT
100
AcDbText
 10
281.4999999999999
 20
18.55277662695579
 30
0.0
 40
2.0
  1
0.8
 41
0.8
  7
K
 11
281.4999999999999
 21
19.55277662695579
 31
0.0
100
AcDbText
 73
     2
  0
TEXT
  5
7CAA
330
7C12
100
AcDbEntity
  8
TEXT
100
AcDbText
 10
281.4999999999999
 20
10.80833284012391
 30
0.0
 40
2.0
  1
2
 41
0.8
  7
K
 11
281.4999999999999
 21
11.8083328401239
 31
0.0
100
AcDbText
 73
     2
  0
LINE
  5
7CAB
330
7C12
100
AcDbEntity
  8
TEXT
100
AcDbLine
 10
281.4999999999999
 20
31.16944230720361
 30
0.0
 11
285.1060332593608
 21
31.16944230720361
 31
0.0
  0
TEXT
  5
7CAC
330
7C12
100
AcDbEntity
  8
TEXT
100
AcDbText
 10
281.4999999999999
 20
26.29722041378767
 30
0.0
 40
2.0
  1
0.2
 41
0.8
  7
K
 11
281.4999999999999
 21
27.29722041378767
 31
0.0
100
AcDbText
 73
     2
  0
TEXT
  5
7CAD
330
7C12
100
AcDbEntity
  8
TEXT
100
AcDbText
 10
281.4999999999999
 20
22.42499852037173
 30
0.0
 40
2.0
  1
0.5
 41
0.8
  7
K
 11
281.4999999999999
 21
23.42499852037172
 31
0.0
100
AcDbText
 73
     2
  0
TEXT
  5
7CAE
330
7C12
100
AcDbEntity
  8
TEXT
100
AcDbText
 10
288.0
 20
45.0
 30
0.0
 40
3.0
  1
品名
  7
K
100
AcDbText
  0
TEXT
  5
7CAF
330
7C12
100
AcDbEntity
  8
TEXT
100
AcDbText
 10
288.0
 20
32.75
 30
0.0
 40
3.0
  1
設計
  7
K
100
AcDbText
  0
LINE
  5
7CB0
330
7C12
100
AcDbEntity
  8
WAKU
100
AcDbLine
 10
287.0
 20
39.0
 30
0.0
 11
287.0
 21
55.0
 31
0.0
  0
TEXT
  5
7CB1
330
7C12
100
AcDbEntity
  8
TEXT
100
AcDbText
 10
282.2142857142857
 20
33.50555325391157
 30
0.0
 40
2.7
  1
L
  7
K
 72
     1
 11
283.4999999999999
 21
34.85555325391158
 31
0.0
100
AcDbText
 73
     2
  0
LINE
  5
7CB2
330
7C12
100
AcDbEntity
  8
SUNPOU
100
AcDbLine
 10
296.0
 20
55.0
 30
0.0
 11
296.0
 21
39.0
 31
0.0
  0
LINE
  5
7CB3
330
7C12
100
AcDbEntity
  8
WAKU
100
AcDbLine
 10
324.0
 20
32.0
 30
0.0
 11
324.0
 21
39.0
 31
0.0
  0
LINE
  5
7CB4
330
7C12
100
AcDbEntity
  8
WAKU
100
AcDbLine
 10
324.0
 20
19.0
 30
0.0
 11
324.0
 21
32.0
 31
0.0
  0
CIRCLE
  5
7CB5
330
7C12
100
AcDbEntity
  8
JISSEN
100
AcDbCircle
 10
313.3333333333332
 20
15.25
 30
0.0
 40
0.2
  0
CIRCLE
  5
7CB6
330
7C12
100
AcDbEntity
  8
JISSEN
100
AcDbCircle
 10
318.6666666666667
 20
15.25
 30
0.0
 40
0.2
  0
CIRCLE
  5
7CB7
330
7C12
100
AcDbEntity
  8
JISSEN
100
AcDbCircle
 10
313.3333333333332
 20
23.5
 30
0.0
 40
0.2
  0
CIRCLE
  5
7CB8
330
7C12
100
AcDbEntity
  8
JISSEN
100
AcDbCircle
 10
313.3333333333332
 20
31.75
 30
0.0
 40
0.2
  0
CIRCLE
  5
7CB9
330
7C12
100
AcDbEntity
  8
JISSEN
100
AcDbCircle
 10
318.6666666666667
 20
23.5
 30
0.0
 40
0.2
  0
CIRCLE
  5
7CBA
330
7C12
100
AcDbEntity
  8
JISSEN
100
AcDbCircle
 10
318.6666666666667
 20
31.75
 30
0.0
 40
0.2
  0
LINE
  5
7CBB
330
7C12
100
AcDbEntity
  8
SUNPOU
100
AcDbLine
 10
336.0
 20
32.0
 30
0.0
 11
336.0
 21
19.0
 31
0.0
  0
TEXT
  5
7CBC
330
7C12
100
AcDbEntity
  8
TEXT
100
AcDbText
 10
328.485167223504
 20
10.0
 30
0.0
 40
2.0
  1
株式会社
  7
K
100
AcDbText
  0
TEXT
  5
7CBD
330
7C12
100
AcDbEntity
  8
TEXT
100
AcDbText
 10
326.6999999999999
 20
24.0
 30
0.0
 40
3.0
  1
図番
  7
K
 72
     4
 11
330.0
 21
25.5
 31
0.0
100
AcDbText
  0
TEXT
  5
7CBE
330
7C12
100
AcDbEntity
  8
TEXT
100
AcDbText
 10
274.3
 20
57.23202258979018
 30
0.0
 40
3.0
  1
品         名
  7
K
 72
     1
 11
285.5
 21
58.73202258979017
 31
0.0
100
AcDbText
 73
     2
  0
TEXT
  5
7CBF
330
7C12
100
AcDbEntity
  8
TEXT
100
AcDbText
 10
229.0999999999999
 20
57.23202258979018
 30
0.0
 40
3.0
  1
図         番
  7
K
 72
     1
 11
240.5
 21
58.73202258979017
 31
0.0
100
AcDbText
 73
     2
  0
TEXT
  5
7CC0
330
7C12
100
AcDbEntity
  8
TEXT
100
AcDbText
 10
212.0714285714285
 20
57.73202258979018
 30
0.0
 40
2.0
  1
No.
  7
K
 72
     1
 11
214.5
 21
58.73202258979017
 31
0.0
100
AcDbText
 73
     2
  0
LINE
  5
7CC1
330
7C12
100
AcDbEntity
  8
WAKU
100
AcDbLine
 10
384.0
 20
55.0
 30
0.0
 11
349.0
 21
55.0
 31
0.0
  0
TEXT
  5
7CC2
330
7C12
100
AcDbEntity
  8
TEXT
100
AcDbText
 10
367.0633115578711
 20
33.41726061251677
 30
0.0
 40
2.5
  1
(単位mm)
  7
K
100
AcDbText
  0
LINE
  5
7CC3
330
7C12
100
AcDbEntity
  8
SUNPOU
100
AcDbLine
 10
349.0
 20
47.0
 30
0.0
 11
384.0
 21
47.0
 31
0.0
  0
LINE
  5
7CC4
330
7C12
100
AcDbEntity
  8
SUNPOU
100
AcDbLine
 10
356.0
 20
32.0
 30
0.0
 11
356.0
 21
39.0
 31
0.0
  0
LINE
  5
7CC5
330
7C12
100
AcDbEntity
  8
SUNPOU
100
AcDbLine
 10
347.0
 20
39.0
 30
0.0
 11
347.0
 21
32.0
 31
0.0
  0
TEXT
  5
7CC6
330
7C12
100
AcDbEntity
  8
TEXT
100
AcDbText
 10
350.0
 20
49.0
 30
0.0
 40
3.0
  1
材 質
  7
K
100
AcDbText
  0
TEXT
  5
7CC7
330
7C12
100
AcDbEntity
  8
TEXT
100
AcDbText
 10
350.0
 20
41.0
 30
0.0
 40
3.0
  1
板 厚
  7
K
100
AcDbText
  0
LINE
  5
7CC8
330
7C12
100
AcDbEntity
  8
WAKU
100
AcDbLine
 10
349.0
 20
55.0
 30
0.0
 11
349.0
 21
39.0
 31
0.0
  0
TEXT
  5
7CC9
330
7C12
100
AcDbEntity
  8
TEXT
100
AcDbText
 10
348.0
 20
34.0
 30
0.0
 40
3.0
  1
尺度
  7
K
100
AcDbText
  0
LINE
  5
7CCA
330
7C12
100
AcDbEntity
  8
SUNPOU
100
AcDbLine
 10
360.0
 20
55.0
 30
0.0
 11
360.0
 21
39.0
 31
0.0
  0
TEXT
  5
7CCB
330
7C12
100
AcDbEntity
  8
TEXT
100
AcDbText
 10
385.1333333333333
 20
99.60134216402344
 30
0.0
 40
4.0
  1
ず
  7
K
 72
     1
 11
387.0
 21
101.6013421640234
 31
0.0
100
AcDbText
 73
     2
  0
TEXT
  5
7CCC
330
7C12
100
AcDbEntity
  8
TEXT
100
AcDbText
 10
385.0346249501075
 20
64.86078937622085
 30
0.0
 40
4.0
  1
の
  7
K
 72
     4
 11
386.9012916167741
 21
66.86078937622085
 31
0.0
100
AcDbText
  0
TEXT
  5
7CCD
330
7C12
100
AcDbEntity
  8
TEXT
100
AcDbText
 10
385.1333333333333
 20
60.60134216402343
 30
0.0
 40
4.0
  1
こ
  7
K
 72
     1
 11
387.0
 21
62.60134216402343
 31
0.0
100
AcDbText
 73
     2
  0
TEXT
  5
7CCE
330
7C12
100
AcDbEntity
  8
TEXT
100
AcDbText
 10
385.1333333333333
 20
55.60134216402343
 30
0.0
 40
4.0
  1
と
  7
K
 72
     1
 11
387.0
 21
57.60134216402343
 31
0.0
100
AcDbText
 73
     2
  0
TEXT
  5
7CCF
330
7C12
100
AcDbEntity
  8
TEXT
100
AcDbText
 10
385.1333333333333
 20
69.60134216402344
 30
0.0
 40
4.0
  1
却
  7
K
 72
     1
 11
387.0
 21
71.60134216402344
 31
0.0
100
AcDbText
 73
     2
  0
TEXT
  5
7CD0
330
7C12
100
AcDbEntity
  8
TEXT
100
AcDbText
 10
385.1333333333333
 20
74.60134216402344
 30
0.0
 40
4.0
  1
返
  7
K
 72
     1
 11
387.0
 21
76.60134216402344
 31
0.0
100
AcDbText
 73
     2
  0
TEXT
  5
7CD1
330
7C12
100
AcDbEntity
  8
TEXT
100
AcDbText
 10
385.1333333333333
 20
89.60134216402343
 30
0.0
 40
4.0
  1
行
  7
K
 72
     1
 11
387.0
 21
91.60134216402344
 31
0.0
100
AcDbText
 73
     2
  0
TEXT
  5
7CD2
330
7C12
100
AcDbEntity
  8
TEXT
100
AcDbText
 10
385.1333333333333
 20
84.60134216402343
 30
0.0
 40
4.0
  1
元
  7
K
 72
     1
 11
387.0
 21
86.60134216402344
 31
0.0
100
AcDbText
 73
     2
  0
TEXT
  5
7CD3
330
7C12
100
AcDbEntity
  8
TEXT
100
AcDbText
 10
385.2666666666666
 20
79.60134216402344
 30
0.0
 40
4.0
  1
へ
  7
K
 72
     1
 11
387.0
 21
81.60134216402344
 31
0.0
100
AcDbText
 73
     2
  0
TEXT
  5
7CD4
330
7C12
100
AcDbEntity
  8
TEXT
100
AcDbText
 10
385.1333333333333
 20
94.60134216402343
 30
0.0
 40
4.0
  1
発
  7
K
 72
     1
 11
387.0
 21
96.60134216402344
 31
0.0
100
AcDbText
 73
     2
  0
TEXT
  5
7CD5
330
7C12
100
AcDbEntity
  8
TEXT
100
AcDbText
 10
385.1333333333333
 20
124.6013421640234
 30
0.0
 40
4.0
  1
済
  7
K
 72
     1
 11
387.0
 21
126.6013421640234
 31
0.0
100
AcDbText
 73
     2
  0
TEXT
  5
7CD6
330
7C12
100
AcDbEntity
  8
TEXT
100
AcDbText
 10
385.1333333333333
 20
104.6013421640234
 30
0.0
 40
4.0
  1
必
  7
K
 72
     1
 11
387.0
 21
106.6013421640234
 31
0.0
100
AcDbText
 73
     2
  0
TEXT
  5
7CD7
330
7C12
100
AcDbEntity
  8
TEXT
100
AcDbText
 10
387.9256954922052
 20
111.2049702787619
 30
0.0
 40
4.0
  1
、
  7
K
 72
     1
 11
388.4590288255385
 21
113.2049702787619
 31
0.0
100
AcDbText
 73
     2
  0
TEXT
  5
7CD8
330
7C12
100
AcDbEntity
  8
TEXT
100
AcDbText
 10
385.1333333333333
 20
114.6013421640234
 30
0.0
 40
4.0
  1
後
  7
K
 72
     1
 11
387.0
 21
116.6013421640234
 31
0.0
100
AcDbText
 73
     2
  0
TEXT
  5
7CD9
330
7C12
100
AcDbEntity
  8
TEXT
100
AcDbText
 10
385.2666666666666
 20
119.6013421640234
 30
0.0
 40
4.0
  1
み
  7
K
 72
     1
 11
387.0
 21
121.6013421640234
 31
0.0
100
AcDbText
 73
     2
  0
TEXT
  5
7CDA
330
7C12
100
AcDbEntity
  8
TEXT
100
AcDbText
 10
385.1333333333333
 20
134.6013421640234
 30
0.0
 40
4.0
  1
は
  7
K
 72
     1
 11
387.0
 21
136.6013421640234
 31
0.0
100
AcDbText
 73
     2
  0
TEXT
  5
7CDB
330
7C12
100
AcDbEntity
  8
TEXT
100
AcDbText
 10
385.2666666666666
 20
129.6013421640234
 30
0.0
 40
4.0
  1
用
  7
K
 72
     1
 11
387.0
 21
131.6013421640234
 31
0.0
100
AcDbText
 73
     2
  0
TEXT
  5
7CDC
330
7C12
100
AcDbEntity
  8
TEXT
100
AcDbText
 10
385.1333333333333
 20
139.6013421640234
 30
0.0
 40
4.0
  1
図
  7
K
 72
     1
 11
387.0
 21
141.6013421640234
 31
0.0
100
AcDbText
 73
     2
  0
LINE
  5
7CDD
330
7C12
100
AcDbEntity
  8
WAKU
100
AcDbLine
 10
211.0
 20
55.0
 30
0.0
 11
211.0
 21
6.0
 31
0.0
  0
ENDBLK
  5
7CDF
330
7C12
100
AcDbEntity
  8
0
100
AcDbBlockEnd
  0
BLOCK
  5
7CF1
330
7CE4
100
AcDbEntity
  8
0
100
AcDbBlockBegin
  2
*D4
 70
     1
 10
0.0
 20
0.0
 30
0.0
  3
*D4
  1

  0
LINE
  5
7CF2
330
7CE4
100
AcDbEntity
  8
0
  6
BYBLOCK
 62
     0
100
AcDbLine
 10
605.6775639
 20
104.44642584
 30
0.0
 11
605.6775639
 21
34.29397834743122
 31
0.0
  0
LINE
  5
7CF3
330
7CE4
100
AcDbEntity
  8
0
  6
BYBLOCK
 62
     0
100
AcDbLine
 10
871.6775639000001
 20
104.44642584
 30
0.0
 11
871.6775639000001
 21
34.29397834743122
 31
0.0
  0
LINE
  5
7CF4
330
7CE4
100
AcDbEntity
  8
0
  6
BYBLOCK
 62
     0
100
AcDbLine
 10
620.6775638999999
 20
39.29397834743122
 30
0.0
 11
856.6775639000001
 21
39.29397834743122
 31
0.0
  0
INSERT
  5
7CF5
330
7CE4
100
AcDbEntity
  8
0
  6
BYBLOCK
 62
     0
100
AcDbBlockReference
  2
ARROW
 10
605.6775639
 20
39.29397834743122
 30
0.0
 41
15.0
 42
15.0
 43
15.0
 50
180.0
  0
INSERT
  5
7CF6
330
7CE4
100
AcDbEntity
  8
0
  6
BYBLOCK
 62
     0
100
AcDbBlockReference
  2
ARROW
 10
871.6775639000001
 20
39.29397834743122
 30
0.0
 41
15.0
 42
15.0
 43
15.0
  0
MTEXT
  5
7CF7
330
7CE4
100
AcDbEntity
  8
0
  6
BYBLOCK
 62
     0
100
AcDbMText
 10
738.1933849659962
 20
54.29397834743122
 30
0.0
 40
15.0
 41
0.0
 71
     5
 72
     1
  1
\A1;266
1001
ACAD
1000
MTEXTBEGIN
1070
    73
1070
     1
1070
    44
1040
1.0
1070
    74
1070
     0
1000
MTEXTEND
  0
POINT
  5
7CF8
330
7CE4
100
AcDbEntity
  8
DEFPOINTS
  6
BYBLOCK
 62
     0
100
AcDbPoint
 10
605.6775639
 20
109.44642584
 30
0.0
  0
POINT
  5
7CF9
330
7CE4
100
AcDbEntity
  8
DEFPOINTS
  6
BYBLOCK
 62
     0
100
AcDbPoint
 10
871.6775639000001
 20
109.44642584
 30
0.0
  0
POINT
  5
7CFA
330
7CE4
100
AcDbEntity
  8
DEFPOINTS
  6
BYBLOCK
 62
     0
100
AcDbPoint
 10
871.6775639000001
 20
39.29397834743122
 30
0.0
  0
ENDBLK
  5
7CFB
330
7CE4
100
AcDbEntity
  8
0
100
AcDbBlockEnd
  0
BLOCK
  5
7D09
330
7D08
100
AcDbEntity
  8
0
100
AcDbBlockBegin
  2
*D5
 70
     1
 10
0.0
 20
0.0
 30
0.0
  3
*D5
  1

  0
LINE
  5
7E09
330
7D08
100
AcDbEntity
  8
SUNPOU
 62
     0
100
AcDbLine
 10
512.6775638999999
 20
221.9464258399999
 30
0.0
 11
512.6775638999999
 21
34.29397834743122
 31
0.0
  0
LINE
  5
7E0A
330
7D08
100
AcDbEntity
  8
SUNPOU
 62
     0
100
AcDbLine
 10
590.6775639
 20
39.29397834743122
 30
0.0
 11
527.6775639
 21
39.29397834743122
 31
0.0
  0
INSERT
  5
7E0B
330
7D08
100
AcDbEntity
  8
SUNPOU
 62
     0
100
AcDbBlockReference
  2
ARROW
 10
605.6775639
 20
39.29397834743122
 30
0.0
 41
15.0
 42
15.0
 43
15.0
  0
INSERT
  5
7E0C
330
7D08
100
AcDbEntity
  8
SUNPOU
 62
     0
100
AcDbBlockReference
  2
ARROW
 10
512.6775638999999
 20
39.29397834743122
 30
0.0
 41
15.0
 42
15.0
 43
15.0
 50
180.0
  0
MTEXT
  5
7E0D
330
7D08
100
AcDbEntity
  8
SUNPOU
 62
     0
100
AcDbMText
 10
559.1775638999999
 20
54.29397834743122
 30
0.0
 40
15.0
 41
0.0
 71
     5
 72
     1
  1
\A1;93
  0
POINT
  5
7E0E
330
7D08
100
AcDbEntity
  8
DEFPOINTS
 62
     0
100
AcDbPoint
 10
605.6775639
 20
109.44642584
 30
0.0
  0
POINT
  5
7E0F
330
7D08
100
AcDbEntity
  8
DEFPOINTS
 62
     0
100
AcDbPoint
 10
512.6775638999999
 20
226.9464258399999
 30
0.0
  0
POINT
  5
7E10
330
7D08
100
AcDbEntity
  8
DEFPOINTS
 62
     0
100
AcDbPoint
 10
512.6775638999999
 20
39.29397834743122
 30
0.0
  0
ENDBLK
  5
7D12
330
7D08
100
AcDbEntity
  8
0
100
AcDbBlockEnd
  0
BLOCK
  5
7D22
330
7D14
100
AcDbEntity
  8
0
100
AcDbBlockBegin
  2
*D6
 70
     1
 10
0.0
 20
0.0
 30
0.0
  3
*D6
  1

  0
LINE
  5
7D23
330
7D14
100
AcDbEntity
  8
0
  6
BYBLOCK
 62
     0
100
AcDbLine
 10
348.9512441141205
 20
104.44642584
 30
0.0
 11
348.9512441141205
 21
34.29397835
 31
0.0
  0
LINE
  5
7D24
330
7D14
100
AcDbEntity
  8
0
  6
BYBLOCK
 62
     0
100
AcDbLine
 10
41.95124411412055
 20
104.44642584
 30
0.0
 11
41.95124411412055
 21
34.29397835
 31
0.0
  0
LINE
  5
7D25
330
7D14
100
AcDbEntity
  8
0
  6
BYBLOCK
 62
     0
100
AcDbLine
 10
333.9512441141205
 20
39.29397835
 30
0.0
 11
56.95124411412055
 21
39.29397835
 31
0.0
  0
INSERT
  5
7D26
330
7D14
100
AcDbEntity
  8
0
  6
BYBLOCK
 62
     0
100
AcDbBlockReference
  2
ARROW
 10
348.9512441141205
 20
39.29397835
 30
0.0
 41
15.0
 42
15.0
 43
15.0
  0
INSERT
  5
7D27
330
7D14
100
AcDbEntity
  8
0
  6
BYBLOCK
 62
     0
100
AcDbBlockReference
  2
ARROW
 10
41.95124411412055
 20
39.29397835
 30
0.0
 41
15.0
 42
15.0
 43
15.0
 50
180.0
  0
MTEXT
  5
7D28
330
7D14
100
AcDbEntity
  8
0
  6
BYBLOCK
 62
     0
100
AcDbMText
 10
202.5380074831196
 20
54.29397835
 30
0.0
 40
15.0
 41
0.0
 71
     5
 72
     1
  1
\A1;307
1001
ACAD
1000
MTEXTBEGIN
1070
    73
1070
     1
1070
    44
1040
1.0
1070
    74
1070
     0
1000
MTEXTEND
  0
POINT
  5
7D29
330
7D14
100
AcDbEntity
  8
DEFPOINTS
  6
BYBLOCK
 62
     0
100
AcDbPoint
 10
348.9512441141205
 20
109.44642584
 30
0.0
  0
POINT
  5
7D2A
330
7D14
100
AcDbEntity
  8
DEFPOINTS
  6
BYBLOCK
 62
     0
100
AcDbPoint
 10
41.95124411412055
 20
109.44642584
 30
0.0
  0
POINT
  5
7D2B
330
7D14
100
AcDbEntity
  8
DEFPOINTS
  6
BYBLOCK
 62
     0
100
AcDbPoint
 10
41.95124411412055
 20
39.29397835
 30
0.0
  0
ENDBLK
  5
7D2C
330
7D14
100
AcDbEntity
  8
0
100
AcDbBlockEnd
  0
BLOCK
  5
7D2E
330
7D2D
100
AcDbEntity
  8
0
100
AcDbBlockBegin
  2
*D7
 70
     1
 10
0.0
 20
0.0
 30
0.0
  3
*D7
  1

  0
LINE
  5
7D2F
330
7D2D
100
AcDbEntity
  8
0
  6
BYBLOCK
 62
     0
100
AcDbLine
 10
46.45124410587947
 20
91.94642584
 30
0.0
 11
-50.02609406292823
 21
91.94642584
 31
0.0
  0
LINE
  5
7D30
330
7D2D
100
AcDbEntity
  8
0
  6
BYBLOCK
 62
     0
100
AcDbLine
 10
130.4512441099999
 20
226.94642584
 30
0.0
 11
-50.02609406292821
 21
226.94642584
 31
0.0
  0
LINE
  5
7D31
330
7D2D
100
AcDbEntity
  8
0
  6
BYBLOCK
 62
     0
100
AcDbLine
 10
-45.02609406292822
 20
106.94642584
 30
0.0
 11
-45.02609406292822
 21
211.94642584
 31
0.0
  0
INSERT
  5
7D32
330
7D2D
100
AcDbEntity
  8
0
  6
BYBLOCK
 62
     0
100
AcDbBlockReference
  2
ARROW
 10
-45.02609406292822
 20
91.94642584
 30
0.0
 41
15.0
 42
15.0
 43
15.0
 50
270.0
  0
INSERT
  5
7D33
330
7D2D
100
AcDbEntity
  8
0
  6
BYBLOCK
 62
     0
100
AcDbBlockReference
  2
ARROW
 10
-45.02609406292822
 20
226.94642584
 30
0.0
 41
15.0
 42
15.0
 43
15.0
 50
90.0
  0
MTEXT
  5
7D34
330
7D2D
100
AcDbEntity
  8
0
  6
BYBLOCK
 62
     0
100
AcDbMText
 10
-60.02609406292823
 20
158.2697295075945
 30
0.0
 40
15.0
 41
0.0
 71
     5
 72
     1
  1
\A1;135
 11
0.0000000000000001
 21
1.0
 31
0.0
1001
ACAD
1000
MTEXTBEGIN
1070
    73
1070
     1
1070
    44
1040
1.0
1070
    74
1070
     0
1000
MTEXTEND
  0
POINT
  5
7D35
330
7D2D
100
AcDbEntity
  8
DEFPOINTS
  6
BYBLOCK
 62
     0
100
AcDbPoint
 10
51.45124410587947
 20
91.94642584
 30
0.0
  0
POINT
  5
7D36
330
7D2D
100
AcDbEntity
  8
DEFPOINTS
  6
BYBLOCK
 62
     0
100
AcDbPoint
 10
135.45124411
 20
226.94642584
 30
0.0
  0
POINT
  5
7D37
330
7D2D
100
AcDbEntity
  8
DEFPOINTS
  6
BYBLOCK
 62
     0
100
AcDbPoint
 10
-45.02609406292822
 20
226.94642584
 30
0.0
  0
ENDBLK
  5
7D38
330
7D2D
100
AcDbEntity
  8
0
100
AcDbBlockEnd
  0
BLOCK
  5
7D4A
330
7D49
100
AcDbEntity
  8
0
100
AcDbBlockBegin
  2
*D9
 70
     1
 10
0.0
 20
0.0
 30
0.0
  3
*D9
  1

  0
LINE
  5
7D4B
330
7D49
100
AcDbEntity
  8
0
  6
BYBLOCK
 62
     0
100
AcDbLine
 10
46.45124410587947
 20
91.94642584
 30
0.0
 11
-80.02609406292824
 21
91.94642584000002
 31
0.0
  0
LINE
  5
7D4C
330
7D49
100
AcDbEntity
  8
0
  6
BYBLOCK
 62
     0
100
AcDbLine
 10
49.45124410587961
 20
366.94642584
 30
0.0
 11
-80.02609406292819
 21
366.94642584
 31
0.0
  0
LINE
  5
7D4D
330
7D49
100
AcDbEntity
  8
0
  6
BYBLOCK
 62
     0
100
AcDbLine
 10
-75.02609406292823
 20
106.94642584
 30
0.0
 11
-75.02609406292819
 21
351.94642584
 31
0.0
  0
INSERT
  5
7D4E
330
7D49
100
AcDbEntity
  8
0
  6
BYBLOCK
 62
     0
100
AcDbBlockReference
  2
ARROW
 10
-75.02609406292823
 20
91.94642584000002
 30
0.0
 41
15.0
 42
15.0
 43
15.0
 50
270.0
  0
INSERT
  5
7D4F
330
7D49
100
AcDbEntity
  8
0
  6
BYBLOCK
 62
     0
100
AcDbBlockReference
  2
ARROW
 10
-75.02609406292819
 20
366.94642584
 30
0.0
 41
15.0
 42
15.0
 43
15.0
 50
90.0
  0
MTEXT
  5
7D50
330
7D49
100
AcDbEntity
  8
0
  6
BYBLOCK
 62
     0
100
AcDbMText
 10
-90.02609406292821
 20
229.44642584
 30
0.0
 40
15.0
 41
0.0
 71
     5
 72
     1
  1
\A1;275
 11
0.0000000000000001
 21
1.0
 31
0.0
1001
ACAD
1000
MTEXTBEGIN
1070
    73
1070
     1
1070
    44
1040
1.0
1070
    74
1070
     0
1000
MTEXTEND
  0
POINT
  5
7D51
330
7D49
100
AcDbEntity
  8
DEFPOINTS
  6
BYBLOCK
 62
     0
100
AcDbPoint
 10
51.45124410587947
 20
91.94642584
 30
0.0
  0
POINT
  5
7D52
330
7D49
100
AcDbEntity
  8
DEFPOINTS
  6
BYBLOCK
 62
     0
100
AcDbPoint
 10
54.45124410587961
 20
366.94642584
 30
0.0
  0
POINT
  5
7D53
330
7D49
100
AcDbEntity
  8
DEFPOINTS
  6
BYBLOCK
 62
     0
100
AcDbPoint
 10
-75.02609406292819
 20
366.94642584
 30
0.0
  0
ENDBLK
  5
7D54
330
7D49
100
AcDbEntity
  8
0
100
AcDbBlockEnd
  0
BLOCK
  5
7D57
330
7D56
100
AcDbEntity
  8
0
100
AcDbBlockBegin
  2
*D10
 70
     1
 10
0.0
 20
0.0
 30
0.0
  3
*D10
  1

  0
LINE
  5
7D58
330
7D56
100
AcDbEntity
  8
0
  6
BYBLOCK
 62
     0
100
AcDbLine
 10
46.45124410587947
 20
91.94642584
 30
0.0
 11
-110.0260940629282
 21
91.94642584000002
 31
0.0
  0
LINE
  5
7D59
330
7D56
100
AcDbEntity
  8
0
  6
BYBLOCK
 62
     0
100
AcDbLine
 10
70.45124411
 20
561.9464258399998
 30
0.0
 11
-110.0260940629282
 21
561.9464258399998
 31
0.0
  0
LINE
  5
7D5A
330
7D56
100
AcDbEntity
  8
0
  6
BYBLOCK
 62
     0
100
AcDbLine
 10
-105.0260940629282
 20
106.94642584
 30
0.0
 11
-105.0260940629281
 21
546.9464258399998
 31
0.0
  0
INSERT
  5
7D5B
330
7D56
100
AcDbEntity
  8
0
  6
BYBLOCK
 62
     0
100
AcDbBlockReference
  2
ARROW
 10
-105.0260940629282
 20
91.94642584000002
 30
0.0
 41
15.0
 42
15.0
 43
15.0
 50
270.0
  0
INSERT
  5
7D5C
330
7D56
100
AcDbEntity
  8
0
  6
BYBLOCK
 62
     0
100
AcDbBlockReference
  2
ARROW
 10
-105.0260940629281
 20
561.9464258399998
 30
0.0
 41
15.0
 42
15.0
 43
15.0
 50
90.0
  0
MTEXT
  5
7D5D
330
7D56
100
AcDbEntity
  8
0
  6
BYBLOCK
 62
     0
100
AcDbMText
 10
-120.0260940629282
 20
326.9464258399999
 30
0.0
 40
15.0
 41
0.0
 71
     5
 72
     1
  1
\A1;470
 11
0.0000000000000001
 21
1.0
 31
0.0
1001
ACAD
1000
MTEXTBEGIN
1070
    73
1070
     1
1070
    44
1040
1.0
1070
    74
1070
     0
1000
MTEXTEND
  0
POINT
  5
7D5E
330
7D56
100
AcDbEntity
  8
DEFPOINTS
  6
BYBLOCK
 62
     0
100
AcDbPoint
 10
51.45124410587947
 20
91.94642584
 30
0.0
  0
POINT
  5
7D5F
330
7D56
100
AcDbEntity
  8
DEFPOINTS
  6
BYBLOCK
 62
     0
100
AcDbPoint
 10
75.45124411
 20
561.9464258399998
 30
0.0
  0
POINT
  5
7D60
330
7D56
100
AcDbEntity
  8
DEFPOINTS
  6
BYBLOCK
 62
     0
100
AcDbPoint
 10
-105.0260940629281
 20
561.9464258399998
 30
0.0
  0
ENDBLK
  5
7D61
330
7D56
100
AcDbEntity
  8
0
100
AcDbBlockEnd
  0
BLOCK
  5
7D7B
330
7D63
100
AcDbEntity
  8
0
100
AcDbBlockBegin
  2
*D11
 70
     1
 10
0.0
 20
0.0
 30
0.0
  3
*D11
  1

  0
LINE
  5
7D7C
330
7D63
100
AcDbEntity
  8
0
  6
BYBLOCK
 62
     0
100
AcDbLine
 10
75.45124411
 20
566.9464258399998
 30
0.0
 11
75.45124411
 21
609.1722747169519
 31
0.0
  0
LINE
  5
7D7D
330
7D63
100
AcDbEntity
  8
0
  6
BYBLOCK
 62
     0
100
AcDbLine
 10
315.45124411
 20
566.9464258399999
 30
0.0
 11
315.45124411
 21
609.1722747169519
 31
0.0
  0
LINE
  5
7D7E
330
7D63
100
AcDbEntity
  8
0
  6
BYBLOCK
 62
     0
100
AcDbLine
 10
90.45124411000001
 20
604.172274716952
 30
0.0
 11
300.45124411
 21
604.172274716952
 31
0.0
  0
INSERT
  5
7D7F
330
7D63
100
AcDbEntity
  8
0
  6
BYBLOCK
 62
     0
100
AcDbBlockReference
  2
ARROW
 10
75.45124411
 20
604.172274716952
 30
0.0
 41
15.0
 42
15.0
 43
15.0
 50
180.0
  0
INSERT
  5
7D80
330
7D63
100
AcDbEntity
  8
0
  6
BYBLOCK
 62
     0
100
AcDbBlockReference
  2
ARROW
 10
315.45124411
 20
604.172274716952
 30
0.0
 41
15.0
 42
15.0
 43
15.0
  0
MTEXT
  5
7D81
330
7D63
100
AcDbEntity
  8
0
  6
BYBLOCK
 62
     0
100
AcDbMText
 10
195.45124411
 20
619.1722747169519
 30
0.0
 40
15.0
 41
0.0
 71
     5
 72
     1
  1
\A1;\U+2205240
1001
ACAD
1000
MTEXTBEGIN
1070
    73
1070
     1
1070
    44
1040
1.0
1070
    74
1070
     0
1000
MTEXTEND
  0
POINT
  5
7D82
330
7D63
100
AcDbEntity
  8
DEFPOINTS
  6
BYBLOCK
 62
     0
100
AcDbPoint
 10
75.45124411
 20
561.9464258399998
 30
0.0
  0
POINT
  5
7D83
330
7D63
100
AcDbEntity
  8
DEFPOINTS
  6
BYBLOCK
 62
     0
100
AcDbPoint
 10
315.45124411
 20
561.9464258399999
 30
0.0
  0
POINT
  5
7D84
330
7D63
100
AcDbEntity
  8
DEFPOINTS
  6
BYBLOCK
 62
     0
100
AcDbPoint
 10
315.45124411
 20
604.172274716952
 30
0.0
  0
ENDBLK
  5
7D85
330
7D63
100
AcDbEntity
  8
0
100
AcDbBlockEnd
  0
BLOCK
  5
7D93
330
7D86
100
AcDbEntity
  8
0
100
AcDbBlockBegin
  2
*D12
 70
     1
 10
0.0
 20
0.0
 30
0.0
  3
*D12
  1

  0
LINE
  5
7D94
330
7D86
100
AcDbEntity
  8
0
  6
BYBLOCK
 62
     0
100
AcDbLine
 10
512.6775638999999
 20
316.9464258400001
 30
0.0
 11
512.6775638999999
 21
607.3436176065915
 31
0.0
  0
LINE
  5
7D95
330
7D86
100
AcDbEntity
  8
0
  6
BYBLOCK
 62
     0
100
AcDbLine
 10
871.6775639000001
 20
311.94642584
 30
0.0
 11
871.6775639000001
 21
607.3436176065915
 31
0.0
  0
LINE
  5
7D96
330
7D86
100
AcDbEntity
  8
0
  6
BYBLOCK
 62
     0
100
AcDbLine
 10
527.6775639
 20
602.3436176065915
 30
0.0
 11
856.6775639000001
 21
602.3436176065915
 31
0.0
  0
INSERT
  5
7D97
330
7D86
100
AcDbEntity
  8
0
  6
BYBLOCK
 62
     0
100
AcDbBlockReference
  2
ARROW
 10
512.6775638999999
 20
602.3436176065915
 30
0.0
 41
15.0
 42
15.0
 43
15.0
 50
180.0
  0
INSERT
  5
7D98
330
7D86
100
AcDbEntity
  8
0
  6
BYBLOCK
 62
     0
100
AcDbBlockReference
  2
ARROW
 10
871.6775639000001
 20
602.3436176065915
 30
0.0
 41
15.0
 42
15.0
 43
15.0
  0
MTEXT
  5
7D99
330
7D86
100
AcDbEntity
  8
0
  6
BYBLOCK
 62
     0
100
AcDbMText
 10
686.9080801001983
 20
617.3436176065916
 30
0.0
 40
15.0
 41
0.0
 71
     5
 72
     1
  1
\A1;365
1001
ACAD
1000
MTEXTBEGIN
1070
    73
1070
     1
1070
    44
1040
1.0
1070
    74
1070
     0
1000
MTEXTEND
  0
POINT
  5
7D9A
330
7D86
100
AcDbEntity
  8
DEFPOINTS
  6
BYBLOCK
 62
     0
100
AcDbPoint
 10
512.6775638999999
 20
311.94642584
 30
0.0
  0
POINT
  5
7D9B
330
7D86
100
AcDbEntity
  8
DEFPOINTS
  6
BYBLOCK
 62
     0
100
AcDbPoint
 10
871.6775639000001
 20
306.94642584
 30
0.0
  0
POINT
  5
7D9C
330
7D86
100
AcDbEntity
  8
DEFPOINTS
  6
BYBLOCK
 62
     0
100
AcDbPoint
 10
871.6775639000001
 20
602.3436176065915
 30
0.0
  0
ENDBLK
  5
7D9D
330
7D86
100
AcDbEntity
  8
0
100
AcDbBlockEnd
  0
BLOCK
  5
7D9F
330
7D9E
100
AcDbEntity
  8
0
100
AcDbBlockBegin
  2
*D13
 70
     1
 10
0.0
 20
0.0
 30
0.0
  3
*D13
  1

  0
LINE
  5
7DA0
330
7D9E
100
AcDbEntity
  8
0
  6
BYBLOCK
 62
     0
100
AcDbLine
 10
377.45124411
 20
316.94642584
 30
0.0
 11
377.45124411
 21
653.1428874892867
 31
0.0
  0
LINE
  5
7DA1
330
7D9E
100
AcDbEntity
  8
0
  6
BYBLOCK
 62
     0
100
AcDbLine
 10
13.45124411
 20
316.94642584
 30
0.0
 11
13.45124411000002
 21
653.1428874892867
 31
0.0
  0
LINE
  5
7DA2
330
7D9E
100
AcDbEntity
  8
0
  6
BYBLOCK
 62
     0
100
AcDbLine
 10
362.45124411
 20
648.1428874892867
 30
0.0
 11
28.45124411000002
 21
648.1428874892867
 31
0.0
  0
INSERT
  5
7DA3
330
7D9E
100
AcDbEntity
  8
0
  6
BYBLOCK
 62
     0
100
AcDbBlockReference
  2
ARROW
 10
377.45124411
 20
648.1428874892867
 30
0.0
 41
15.0
 42
15.0
 43
15.0
  0
INSERT
  5
7DA4
330
7D9E
100
AcDbEntity
  8
0
  6
BYBLOCK
 62
     0
100
AcDbBlockReference
  2
ARROW
 10
13.45124411000002
 20
648.1428874892867
 30
0.0
 41
15.0
 42
15.0
 43
15.0
 50
180.0
  0
MTEXT
  5
7DA5
330
7D9E
100
AcDbEntity
  8
0
  6
BYBLOCK
 62
     0
100
AcDbMText
 10
195.4935309636339
 20
663.1428874892868
 30
0.0
 40
15.0
 41
0.0
 71
     5
 72
     1
  1
\A1;364
1001
ACAD
1000
MTEXTBEGIN
1070
    73
1070
     1
1070
    44
1040
1.0
1070
    74
1070
     0
1000
MTEXTEND
  0
POINT
  5
7DA6
330
7D9E
100
AcDbEntity
  8
DEFPOINTS
  6
BYBLOCK
 62
     0
100
AcDbPoint
 10
377.45124411
 20
311.94642584
 30
0.0
  0
POINT
  5
7DA7
330
7D9E
100
AcDbEntity
  8
DEFPOINTS
  6
BYBLOCK
 62
     0
100
AcDbPoint
 10
13.45124411
 20
311.94642584
 30
0.0
  0
POINT
  5
7DA8
330
7D9E
100
AcDbEntity
  8
DEFPOINTS
  6
BYBLOCK
 62
     0
100
AcDbPoint
 10
13.45124411000002
 20
648.1428874892867
 30
0.0
  0
ENDBLK
  5
7DA9
330
7D9E
100
AcDbEntity
  8
0
100
AcDbBlockEnd
  0
BLOCK
  5
7DC3
330
7DC2
100
AcDbEntity
  8
0
100
AcDbBlockBegin
  2
*D14
 70
     1
 10
0.0
 20
0.0
 30
0.0
  3
*D14
  1

  0
LINE
  5
7DC4
330
7DC2
100
AcDbEntity
  8
0
  6
BYBLOCK
 62
     0
100
AcDbLine
 10
347.90957745
 20
1047.867009923906
 30
0.0
 11
347.90957745
 21
1101.491079608273
 31
0.0
  0
LINE
  5
7DC5
330
7DC2
100
AcDbEntity
  8
0
  6
BYBLOCK
 62
     0
100
AcDbLine
 10
292.90957745
 20
1057.867009923906
 30
0.0
 11
292.90957745
 21
1101.491079608273
 31
0.0
  0
LINE
  5
7DC6
330
7DC2
100
AcDbEntity
  8
0
  6
BYBLOCK
 62
     0
100
AcDbLine
 10
332.90957745
 20
1096.491079608273
 30
0.0
 11
307.90957745
 21
1096.491079608273
 31
0.0
  0
INSERT
  5
7DC7
330
7DC2
100
AcDbEntity
  8
0
  6
BYBLOCK
 62
     0
100
AcDbBlockReference
  2
ARROW
 10
347.90957745
 20
1096.491079608273
 30
0.0
 41
15.0
 42
15.0
 43
15.0
  0
INSERT
  5
7DC8
330
7DC2
100
AcDbEntity
  8
0
  6
BYBLOCK
 62
     0
100
AcDbBlockReference
  2
ARROW
 10
292.90957745
 20
1096.491079608273
 30
0.0
 41
15.0
 42
15.0
 43
15.0
 50
180.0
  0
MTEXT
  5
7DC9
330
7DC2
100
AcDbEntity
  8
0
  6
BYBLOCK
 62
     0
100
AcDbMText
 10
321.6436877145351
 20
1111.491079608273
 30
0.0
 40
15.0
 41
0.0
 71
     5
 72
     1
  1
\A1;55
1001
ACAD
1000
MTEXTBEGIN
1070
    73
1070
     1
1070
    44
1040
1.0
1070
    74
1070
     0
1000
MTEXTEND
  0
POINT
  5
7DCA
330
7DC2
100
AcDbEntity
  8
DEFPOINTS
  6
BYBLOCK
 62
     0
100
AcDbPoint
 10
347.90957745
 20
1042.867009923906
 30
0.0
  0
POINT
  5
7DCB
330
7DC2
100
AcDbEntity
  8
DEFPOINTS
  6
BYBLOCK
 62
     0
100
AcDbPoint
 10
292.90957745
 20
1052.867009923906
 30
0.0
  0
POINT
  5
7DCC
330
7DC2
100
AcDbEntity
  8
DEFPOINTS
  6
BYBLOCK
 62
     0
100
AcDbPoint
 10
292.90957745
 20
1096.491079608273
 30
0.0
  0
ENDBLK
  5
7DCD
330
7DC2
100
AcDbEntity
  8
0
100
AcDbBlockEnd
  0
ENDSEC
  0
SECTION
  2
ENTITIES
  0
MTEXT
  5
67D
330
DF
100
AcDbEntity
  8
SUNPOU
100
AcDbMText
 10
5227.136216033687
 20
-13932.05408441242
 30
0.0
 40
6.0
 41
0.0
 71
     6
 72
     1
  1
\A1;
1001
ACAD
1000
MTEXTBEGIN
1070
    73
1070
     1
1070
    44
1040
1.0
1070
    74
1070
     0
1000
MTEXTEND
  0
LINE
  5
7ACF
330
DF
100
AcDbEntity
  8
JISSEN
100
AcDbLine
 10
313.4512441141205
 20
91.94642584
 30
0.0
 11
339.4512441141205
 21
91.94642584000002
 31
0.0
  0
LINE
  5
7AD0
330
DF
100
AcDbEntity
  8
JISSEN
100
AcDbLine
 10
348.9512441141205
 20
109.44642584
 30
0.0
 11
348.9512441141205
 21
306.94642584
 31
0.0
  0
LINE
  5
7AD1
330
DF
100
AcDbEntity
  8
JISSEN
100
AcDbLine
 10
315.45124411
 20
561.9464258399999
 30
0.0
 11
75.45124411
 21
561.9464258399998
 31
0.0
  0
LINE
  5
7AD3
330
DF
100
AcDbEntity
  8
JISSEN
100
AcDbLine
 10
336.4512441141204
 20
366.9464258399999
 30
0.0
 11
54.45124410587959
 21
366.94642584
 31
0.0
  0
LINE
  5
7AD4
330
DF
100
AcDbEntity
  8
JISSEN
100
AcDbLine
 10
135.45124411
 20
226.94642584
 30
0.0
 11
255.4512441099999
 21
226.94642584
 31
0.0
  0
LINE
  5
7AD5
330
DF
100
AcDbEntity
  8
ITTEN
100
AcDbLine
 10
195.45124411
 20
26.14091065
 30
0.0
 11
195.45124411
 21
638.85651524
 31
0.0
  0
LINE
  5
7B06
330
DF
100
AcDbEntity
  8
JISSEN
100
AcDbLine
 10
315.45124411
 20
561.9464258399999
 30
0.0
 11
315.45124411
 21
541.9464258399999
 31
0.0
  0
LINE
  5
7B07
330
DF
100
AcDbEntity
  8
JISSEN
100
AcDbLine
 10
315.45124411
 20
541.9464258399999
 30
0.0
 11
195.45124411
 21
541.9464258399999
 31
0.0
  0
LINE
  5
7B08
330
DF
100
AcDbEntity
  8
JISSEN
100
AcDbLine
 10
305.45124411
 20
541.9464258399999
 30
0.0
 11
305.4512441099999
 21
366.94642584
 31
0.0
  0
LINE
  5
7B09
330
DF
100
AcDbEntity
  8
JISSEN
100
AcDbLine
 10
85.45124411000001
 20
541.9464258399999
 30
0.0
 11
85.45124411000006
 21
366.94642584
 31
0.0
  0
LINE
  5
7B0A
330
DF
100
AcDbEntity
  8
JISSEN
100
AcDbLine
 10
75.45124411
 20
541.9464258399999
 30
0.0
 11
195.45124411
 21
541.9464258399999
 31
0.0
  0
LINE
  5
7B0B
330
DF
100
AcDbEntity
  8
JISSEN
100
AcDbLine
 10
75.45124411
 20
561.9464258399998
 30
0.0
 11
75.45124411
 21
541.9464258399999
 31
0.0
  0
LINE
  5
7B0C
330
DF
100
AcDbEntity
  8
JISSEN
100
AcDbLine
 10
41.95124411412055
 20
306.94642584
 30
0.0
 11
41.95124411412055
 21
109.44642584
 31
0.0
  0
LINE
  5
7B12
330
DF
100
AcDbEntity
  8
JISSEN
100
AcDbLine
 10
377.45124411
 20
306.94642584
 30
0.0
 11
255.4512441099999
 21
306.94642584
 31
0.0
  0
LINE
  5
7B16
330
DF
100
AcDbEntity
  8
JISSEN
100
AcDbLine
 10
135.45124411
 20
226.94642584
 30
0.0
 11
135.45124411
 21
351.9464258399999
 31
0.0
  0
LINE
  5
7B17
330
DF
100
AcDbEntity
  8
JISSEN
100
AcDbLine
 10
255.4512441099999
 20
226.94642584
 30
0.0
 11
255.45124411
 21
351.9464258399999
 31
0.0
  0
LINE
  5
7B18
330
DF
100
AcDbEntity
  8
JISSEN
100
AcDbLine
 10
377.45124411
 20
311.94642584
 30
0.0
 11
347.9095774474538
 21
311.94642584
 31
0.0
  0
LINE
  5
7B19
330
DF
100
AcDbEntity
  8
JISSEN
100
AcDbLine
 10
377.45124411
 20
311.94642584
 30
0.0
 11
377.45124411
 21
306.94642584
 31
0.0
  0
LINE
  5
7B1A
330
DF
100
AcDbEntity
  8
JISSEN
100
AcDbLine
 10
13.45124411
 20
306.94642584
 30
0.0
 11
13.45124411
 21
311.94642584
 31
0.0
  0
LINE
  5
7B1B
330
DF
100
AcDbEntity
  8
JISSEN
100
AcDbLine
 10
336.45124411
 20
361.9464258399998
 30
0.0
 11
54.45124410587957
 21
361.94642584
 31
0.0
  0
LINE
  5
7B1C
330
DF
100
AcDbEntity
  8
JISSEN
100
AcDbLine
 10
42.99291077254616
 20
311.94642584
 30
0.0
 11
13.45124411
 21
311.94642584
 31
0.0
  0
LINE
  5
7B1D
330
DF
100
AcDbEntity
  8
JISSEN
100
AcDbLine
 10
135.45124411
 20
306.94642584
 30
0.0
 11
13.45124411
 21
306.94642584
 31
0.0
  0
LINE
  5
7B1E
330
DF
100
AcDbEntity
  8
JISSEN
100
AcDbLine
 10
135.45124411
 20
271.94642584
 30
0.0
 11
255.4512441099999
 21
271.94642584
 31
0.0
  0
LINE
  5
7B22
330
DF
100
AcDbEntity
  8
JISSEN
100
AcDbLine
 10
341.4512441141205
 20
93.94642584000001
 30
0.0
 11
341.4512441141205
 21
109.44642584
 31
0.0
  0
LINE
  5
7B23
330
DF
100
AcDbEntity
  8
JISSEN
100
AcDbLine
 10
311.4512441141205
 20
93.94642584000001
 30
0.0
 11
311.4512441141205
 21
109.44642584
 31
0.0
  0
LINE
  5
7B24
330
DF
100
AcDbEntity
  8
JISSEN
100
AcDbLine
 10
41.95124411412055
 20
109.44642584
 30
0.0
 11
348.9512441141205
 21
109.44642584
 31
0.0
  0
LINE
  5
7B25
330
DF
100
AcDbEntity
  8
JISSEN
100
AcDbLine
 10
79.45124410587948
 20
93.94642584000001
 30
0.0
 11
79.45124410587948
 21
109.44642584
 31
0.0
  0
LINE
  5
7B26
330
DF
100
AcDbEntity
  8
JISSEN
100
AcDbLine
 10
49.45124410587947
 20
93.94642584000001
 30
0.0
 11
49.45124410587948
 21
109.44642584
 31
0.0
  0
LINE
  5
7B27
330
DF
100
AcDbEntity
  8
JISSEN
100
AcDbLine
 10
77.45124410587948
 20
91.94642584000002
 30
0.0
 11
51.45124410587947
 21
91.94642584
 31
0.0
  0
LINE
  5
7B31
330
DF
100
AcDbEntity
  8
JISSEN
100
AcDbLine
 10
595.6775638999999
 20
561.9464258399998
 30
0.0
 11
595.6775638999999
 21
541.9464258399999
 31
0.0
  0
LINE
  5
7B32
330
DF
100
AcDbEntity
  8
JISSEN
100
AcDbLine
 10
595.6775638999999
 20
541.9464258399999
 30
0.0
 11
715.6775639
 21
541.9464258399999
 31
0.0
  0
LINE
  5
7B33
330
DF
100
AcDbEntity
  8
JISSEN
100
AcDbLine
 10
605.6775638999998
 20
541.9464258399999
 30
0.0
 11
605.6775639
 21
361.94642584
 31
0.0
  0
LINE
  5
7B34
330
DF
100
AcDbEntity
  8
JISSEN
100
AcDbLine
 10
825.6775639
 20
541.9464258399999
 30
0.0
 11
825.6775638999998
 21
366.94642584
 31
0.0
  0
LINE
  5
7B35
330
DF
100
AcDbEntity
  8
JISSEN
100
AcDbLine
 10
835.6775639
 20
541.9464258399999
 30
0.0
 11
715.6775638999999
 21
541.9464258399999
 31
0.0
  0
LINE
  5
7B36
330
DF
100
AcDbEntity
  8
JISSEN
100
AcDbLine
 10
835.6775639
 20
561.9464258399999
 30
0.0
 11
835.6775639
 21
541.9464258399999
 31
0.0
  0
LINE
  5
7B37
330
DF
100
AcDbEntity
  8
JISSEN
100
AcDbLine
 10
835.6775639
 20
561.9464258399999
 30
0.0
 11
595.6775638999999
 21
561.9464258399998
 31
0.0
  0
LINE
  5
7B3C
330
DF
100
AcDbEntity
  8
JISSEN
100
AcDbLine
 10
613.1775638999999
 20
93.94642584000001
 30
0.0
 11
613.1775638999999
 21
109.44642584
 31
0.0
  0
LINE
  5
7B3D
330
DF
100
AcDbEntity
  8
JISSEN
100
AcDbLine
 10
643.1775639
 20
93.94642584000001
 30
0.0
 11
643.1775639
 21
109.44642584
 31
0.0
  0
LINE
  5
7B3E
330
DF
100
AcDbEntity
  8
JISSEN
100
AcDbLine
 10
615.1775639
 20
91.94642584000002
 30
0.0
 11
641.1775639
 21
91.94642584
 31
0.0
  0
LINE
  5
7B3F
330
DF
100
AcDbEntity
  8
JISSEN
100
AcDbLine
 10
834.1775638999999
 20
93.94642584000001
 30
0.0
 11
834.1775638999999
 21
109.44642584
 31
0.0
  0
LINE
  5
7B40
330
DF
100
AcDbEntity
  8
JISSEN
100
AcDbLine
 10
864.1775639
 20
93.94642584000001
 30
0.0
 11
864.1775639
 21
109.44642584
 31
0.0
  0
LINE
  5
7B41
330
DF
100
AcDbEntity
  8
JISSEN
100
AcDbLine
 10
836.1775638999999
 20
91.94642584
 30
0.0
 11
862.1775639
 21
91.94642584
 31
0.0
  0
LINE
  5
7B44
330
DF
100
AcDbEntity
  8
JISSEN
100
AcDbLine
 10
595.8570558243111
 20
226.9464258399999
 30
0.0
 11
512.6775638999999
 21
226.9464258399999
 31
0.0
  0
LINE
  5
7B45
330
DF
100
AcDbEntity
  8
JISSEN
100
AcDbLine
 10
512.6775638999999
 20
226.9464258399999
 30
0.0
 11
512.6775638999999
 21
311.94642584
 31
0.0
  0
LINE
  5
7B46
330
DF
100
AcDbEntity
  8
JISSEN
100
AcDbLine
 10
562.6775638999999
 20
361.94642584
 30
0.0
 11
617.1358972333333
 21
361.94642584
 31
0.0
  0
LINE
  5
7B48
330
DF
100
AcDbEntity
  8
JISSEN
100
AcDbLine
 10
871.6775639000001
 20
306.94642584
 30
0.0
 11
864.1775639
 21
306.94642584
 31
0.0
  0
LINE
  5
7B49
330
DF
100
AcDbEntity
  8
JISSEN
100
AcDbLine
 10
864.1775639
 20
306.94642584
 30
0.0
 11
864.1775639
 21
114.44642584
 31
0.0
  0
LINE
  5
7B4D
330
DF
100
AcDbEntity
  8
JISSEN
100
AcDbLine
 10
864.1775639
 20
109.44642584
 30
0.0
 11
871.6775639000001
 21
109.44642584
 31
0.0
  0
LINE
  5
7B4E
330
DF
100
AcDbEntity
  8
JISSEN
100
AcDbLine
 10
871.6775639000001
 20
109.44642584
 30
0.0
 11
871.6775639000001
 21
114.4464258399999
 31
0.0
  0
LINE
  5
7B4F
330
DF
100
AcDbEntity
  8
JISSEN
100
AcDbLine
 10
871.6775639000001
 20
114.4464258399999
 30
0.0
 11
613.1775638999999
 21
114.4464258399999
 31
0.0
  0
LINE
  5
7B50
330
DF
100
AcDbEntity
  8
JISSEN
100
AcDbLine
 10
864.1775639
 20
109.44642584
 30
0.0
 11
605.6775639
 21
109.44642584
 31
0.0
  0
LINE
  5
7B53
330
DF
100
AcDbEntity
  8
JISSEN
100
AcDbLine
 10
859.1775638999999
 20
366.94642584
 30
0.0
 11
871.6775639000001
 21
306.94642584
 31
0.0
  0
LINE
  5
7B54
330
DF
100
AcDbEntity
  8
JISSEN
100
AcDbLine
 10
605.6775639
 20
366.94642584
 30
0.0
 11
859.1775638999999
 21
366.94642584
 31
0.0
  0
LINE
  5
7B55
330
DF
100
AcDbEntity
  8
JISSEN
100
AcDbLine
 10
860.2192305666665
 20
361.94642584
 30
0.0
 11
613.1775638999999
 21
361.94642584
 31
0.0
  0
LINE
  5
7B56
330
DF
100
AcDbEntity
  8
JISSEN
100
AcDbLine
 10
605.6775639
 20
114.4464258399999
 30
0.0
 11
613.1775639000001
 21
114.4464258399999
 31
0.0
  0
LINE
  5
7B57
330
DF
100
AcDbEntity
  8
JISSEN
100
AcDbLine
 10
605.6775639
 20
109.44642584
 30
0.0
 11
605.6775639
 21
114.4464258399999
 31
0.0
  0
LINE
  5
7B59
330
DF
100
AcDbEntity
  8
JISSEN
100
AcDbLine
 10
613.1775638999999
 20
306.94642584
 30
0.0
 11
613.1775639000001
 21
114.4464258399999
 31
0.0
  0
LINE
  5
7B5A
330
DF
100
AcDbEntity
  8
JISSEN
100
AcDbLine
 10
617.1358972333333
 20
361.94642584
 30
0.0
 11
605.6775638999998
 21
306.94642584
 31
0.0
  0
LINE
  5
7B5D
330
DF
100
AcDbEntity
  8
JISSEN
100
AcDbLine
 10
613.1775638999999
 20
306.94642584
 30
0.0
 11
605.6775638999998
 21
306.94642584
 31
0.0
  0
LINE
  5
7B5F
330
DF
100
AcDbEntity
  8
JISSEN
100
AcDbLine
 10
613.1775638999999
 20
306.94642584
 30
0.0
 11
864.1775639
 21
306.94642584
 31
0.0
  0
LINE
  5
7B65
330
DF
100
AcDbEntity
  8
JISSEN
100
AcDbLine
 10
613.1775639000001
 20
256.9464258400001
 30
0.0
 11
595.8570558243111
 21
226.9464258399999
 31
0.0
  0
ARC
  5
7B67
330
DF
100
AcDbEntity
  8
JISSEN
100
AcDbCircle
 10
562.6775638999999
 20
311.94642584
 30
0.0
 40
50.0
100
AcDbArc
 50
90.0
 51
180.0
  0
LINE
  5
7B6D
330
DF
100
AcDbEntity
  8
JISSEN
100
AcDbLine
 10
640.6775639
 20
306.94642584
 30
0.0
 11
640.6775639
 21
311.94642584
 31
0.0
  0
LINE
  5
7B6E
330
DF
100
AcDbEntity
  8
JISSEN
100
AcDbLine
 10
640.6775639
 20
311.94642584
 30
0.0
 11
825.6775639
 21
311.94642584
 31
0.0
  0
LINE
  5
7B6F
330
DF
100
AcDbEntity
  8
JISSEN
100
AcDbLine
 10
825.6775639
 20
311.94642584
 30
0.0
 11
825.6775639
 21
306.94642584
 31
0.0
  0
LINE
  5
7B70
330
DF
100
AcDbEntity
  8
JISSEN
100
AcDbLine
 10
669.1775639
 20
306.94642584
 30
0.0
 11
669.1775639
 21
311.94642584
 31
0.0
  0
LINE
  5
7B71
330
DF
100
AcDbEntity
  8
JISSEN
100
AcDbLine
 10
797.1775639
 20
311.94642584
 30
0.0
 11
797.1775639
 21
306.94642584
 31
0.0
  0
LINE
  5
7B74
330
DF
100
AcDbEntity
  8
JISSEN
100
AcDbLine
 10
512.6775638999999
 20
271.94642584
 30
0.0
 11
613.1775638999999
 21
271.94642584
 31
0.0
  0
CIRCLE
  5
7B82
330
DF
100
AcDbEntity
  8
JISSEN
100
AcDbCircle
 10
195.45124411
 20
900.408676583906
 30
0.0
 40
115.0
  0
CIRCLE
  5
7B83
330
DF
100
AcDbEntity
  8
JISSEN
100
AcDbCircle
 10
195.45124411
 20
900.408676583906
 30
0.0
 40
20.0
  0
CIRCLE
  5
7B84
330
DF
100
AcDbEntity
  8
JISSEN
100
AcDbCircle
 10
195.45124411
 20
900.408676583906
 30
0.0
 40
70.0
  0
CIRCLE
  5
7B85
330
DF
100
AcDbEntity
  8
JISSEN
100
AcDbCircle
 10
195.45124411
 20
900.408676583906
 30
0.0
 40
100.0
  0
CIRCLE
  5
7B86
330
DF
100
AcDbEntity
  8
JISSEN
100
AcDbCircle
 10
195.45124411
 20
900.408676583906
 30
0.0
 40
108.0
  0
CIRCLE
  5
7B87
330
DF
100
AcDbEntity
  8
JISSEN
100
AcDbCircle
 10
195.45124411
 20
900.408676583906
 30
0.0
 40
120.0
  0
LINE
  5
7B88
330
DF
100
AcDbEntity
  8
ITTEN
100
AcDbLine
 10
45.45124411000005
 20
900.408676583906
 30
0.0
 11
345.45124411
 21
900.408676583906
 31
0.0
  0
LINE
  5
7B89
330
DF
100
AcDbEntity
  8
ITTEN
100
AcDbLine
 10
195.45124411
 20
1050.408676583906
 30
0.0
 11
195.45124411
 21
750.408676583906
 31
0.0
  0
LINE
  5
7B8D
330
DF
100
AcDbEntity
  8
JISSEN
100
AcDbLine
 10
336.4512441141204
 20
366.9464258399999
 30
0.0
 11
348.9512441141205
 21
306.94642584
 31
0.0
  0
LINE
  5
7B8F
330
DF
100
AcDbEntity
  8
JISSEN
100
AcDbLine
 10
336.45124411
 20
366.9464258399999
 30
0.0
 11
336.45124411
 21
361.9464258399999
 31
0.0
  0
LINE
  5
7B90
330
DF
100
AcDbEntity
  8
JISSEN
100
AcDbLine
 10
54.45124410587959
 20
366.9464258399999
 30
0.0
 11
41.95124410587948
 21
306.94642584
 31
0.0
  0
LINE
  5
7B91
330
DF
100
AcDbEntity
  8
JISSEN
100
AcDbLine
 10
54.45124410587959
 20
361.9464258399998
 30
0.0
 11
54.45124410587959
 21
366.9464258399999
 31
0.0
  0
CIRCLE
  5
7B94
330
DF
100
AcDbEntity
  8
JISSEN
100
AcDbCircle
 10
195.45124411
 20
900.408676583906
 30
0.0
 40
141.0
  0
CIRCLE
  5
7B95
330
DF
100
AcDbEntity
  8
JISSEN
100
AcDbCircle
 10
195.45124411
 20
900.408676583906
 30
0.0
 40
136.0
  0
LINE
  5
7BAA
330
DF
100
AcDbEntity
  8
JISSEN
100
AcDbLine
 10
347.90957745
 20
989.950343239575
 30
0.0
 11
377.45124411
 21
960.4086765795752
 31
0.0
  0
LINE
  5
7BAB
330
DF
100
AcDbEntity
  8
JISSEN
100
AcDbLine
 10
377.45124411
 20
960.4086765795752
 30
0.0
 11
377.45124411
 21
855.4086765795752
 31
0.0
  0
LINE
  5
7BAC
330
DF
100
AcDbEntity
  8
JISSEN
100
AcDbLine
 10
377.45124411
 20
855.4086765795752
 30
0.0
 11
347.90957745
 21
825.8670099195752
 31
0.0
  0
LINE
  5
7BAD
330
DF
100
AcDbEntity
  8
JISSEN
100
AcDbLine
 10
13.45124411000006
 20
855.4086765795752
 30
0.0
 11
42.99291077000003
 21
825.8670099195752
 31
0.0
  0
LINE
  5
7BAE
330
DF
100
AcDbEntity
  8
JISSEN
100
AcDbLine
 10
13.45124411000006
 20
960.4086765795752
 30
0.0
 11
13.45124411000006
 21
855.4086765795752
 31
0.0
  0
LINE
  5
7BAF
330
DF
100
AcDbEntity
  8
JISSEN
100
AcDbLine
 10
42.99291077000009
 20
989.950343239575
 30
0.0
 11
13.45124411000006
 21
960.4086765795752
 31
0.0
  0
LINE
  5
7BDE
330
DF
100
AcDbEntity
  8
JISSEN
100
AcDbLine
 10
135.45124411
 20
772.8116546750856
 30
0.0
 11
135.45124411
 21
707.4086765795751
 31
0.0
  0
LINE
  5
7BDF
330
DF
100
AcDbEntity
  8
JISSEN
100
AcDbLine
 10
145.45124411
 20
697.4086765795751
 30
0.0
 11
245.45124411
 21
697.4086765795752
 31
0.0
  0
LINE
  5
7BE0
330
DF
100
AcDbEntity
  8
JISSEN
100
AcDbLine
 10
255.45124411
 20
707.4086765795753
 30
0.0
 11
255.45124411
 21
772.8116546750856
 31
0.0
  0
LINE
  5
7BE3
330
DF
100
AcDbEntity
  8
JISSEN
100
AcDbLine
 10
337.9095774499999
 20
1052.867009923906
 30
0.0
 11
52.9929107700001
 21
1052.867009923906
 31
0.0
  0
LINE
  5
7BE4
330
DF
100
AcDbEntity
  8
JISSEN
100
AcDbLine
 10
326.45124411
 20
1041.408676583906
 30
0.0
 11
64.45124411000006
 21
1041.408676583906
 31
0.0
  0
LINE
  5
7BE5
330
DF
100
AcDbEntity
  8
JISSEN
100
AcDbLine
 10
347.9095774499999
 20
1042.867009923906
 30
0.0
 11
347.90957745
 21
795.4086765839059
 31
0.0
  0
LINE
  5
7BE6
330
DF
100
AcDbEntity
  8
JISSEN
100
AcDbLine
 10
336.45124411
 20
1031.408676583906
 30
0.0
 11
336.45124411
 21
806.8670099239058
 31
0.0
  0
LINE
  5
7BE8
330
DF
100
AcDbEntity
  8
JISSEN
100
AcDbLine
 10
337.90957745
 20
785.4086765839059
 30
0.0
 11
277.0355563274847
 21
785.4086765839061
 31
0.0
  0
LINE
  5
7BE9
330
DF
100
AcDbEntity
  8
JISSEN
100
AcDbLine
 10
326.4512441099999
 20
796.8670099239059
 30
0.0
 11
291.1597769859639
 21
796.867009923906
 31
0.0
  0
LINE
  5
7BED
330
DF
100
AcDbEntity
  8
JISSEN
100
AcDbLine
 10
99.74271123403617
 20
796.8670099239061
 30
0.0
 11
64.45124411
 21
796.867009923906
 31
0.0
  0
LINE
  5
7BEF
330
DF
100
AcDbEntity
  8
JISSEN
100
AcDbLine
 10
113.8669318925152
 20
785.4086765839062
 30
0.0
 11
52.99291077000003
 21
785.4086765839062
 31
0.0
  0
LINE
  5
7BF0
330
DF
100
AcDbEntity
  8
JISSEN
100
AcDbLine
 10
54.45124411000006
 20
1031.408676583906
 30
0.0
 11
54.45124411
 21
806.867009923906
 31
0.0
  0
LINE
  5
7BF1
330
DF
100
AcDbEntity
  8
JISSEN
100
AcDbLine
 10
42.99291077000009
 20
1042.867009923906
 30
0.0
 11
42.99291077000003
 21
795.4086765839061
 31
0.0
  0
ARC
  5
7BF3
330
DF
100
AcDbEntity
  8
JISSEN
100
AcDbCircle
 10
326.4512441099999
 20
806.8670099239058
 30
0.0
 40
10.0
100
AcDbArc
 50
270.0
 51
0.0000000000000127
  0
ARC
  5
7BF4
330
DF
100
AcDbEntity
  8
JISSEN
100
AcDbCircle
 10
326.45124411
 20
1031.408676583906
 30
0.0
 40
10.0
100
AcDbArc
 50
0.0
 51
89.99999999999998
  0
ARC
  5
7BF5
330
DF
100
AcDbEntity
  8
JISSEN
100
AcDbCircle
 10
64.45124411000006
 20
1031.408676583906
 30
0.0
 40
10.0
100
AcDbArc
 50
90.0
 51
180.0
  0
ARC
  5
7BF6
330
DF
100
AcDbEntity
  8
JISSEN
100
AcDbCircle
 10
64.45124411
 20
806.867009923906
 30
0.0
 40
10.0
100
AcDbArc
 50
180.0
 51
270.0
  0
ARC
  5
7BF8
330
DF
100
AcDbEntity
  8
JISSEN
100
AcDbCircle
 10
337.9095774499999
 20
1042.867009923906
 30
0.0
 40
10.0
100
AcDbArc
 50
0.0
 51
89.99999999999998
  0
ARC
  5
7BF9
330
DF
100
AcDbEntity
  8
JISSEN
100
AcDbCircle
 10
337.90957745
 20
795.4086765839059
 30
0.0
 40
10.0
100
AcDbArc
 50
270.0
 51
0.0000000000000127
  0
ARC
  5
7BFA
330
DF
100
AcDbEntity
  8
JISSEN
100
AcDbCircle
 10
52.99291077000003
 20
795.4086765839061
 30
0.0
 40
10.0
100
AcDbArc
 50
180.0
 51
270.0
  0
ARC
  5
7BFB
330
DF
100
AcDbEntity
  8
JISSEN
100
AcDbCircle
 10
52.9929107700001
 20
1042.867009923906
 30
0.0
 40
10.0
100
AcDbArc
 50
89.99999999999998
 51
180.0
  0
ARC
  5
7BFC
330
DF
100
AcDbEntity
  8
JISSEN
100
AcDbCircle
 10
145.45124411
 20
707.4086765795751
 30
0.0
 40
10.0
100
AcDbArc
 50
180.0
 51
270.0
  0
ARC
  5
7BFD
330
DF
100
AcDbEntity
  8
JISSEN
100
AcDbCircle
 10
245.45124411
 20
707.4086765795753
 30
0.0
 40
10.0
100
AcDbArc
 50
270.0
 51
0.0
  0
ARC
  5
7BFF
330
DF
100
AcDbEntity
  8
JISSEN
100
AcDbCircle
 10
615.1775639
 20
93.94642584000001
 30
0.0
 40
2.0
100
AcDbArc
 50
180.0
 51
270.0
  0
ARC
  5
7C00
330
DF
100
AcDbEntity
  8
JISSEN
100
AcDbCircle
 10
641.1775639
 20
93.94642584000001
 30
0.0
 40
2.0
100
AcDbArc
 50
270.0
 51
0.0
  0
ARC
  5
7C01
330
DF
100
AcDbEntity
  8
JISSEN
100
AcDbCircle
 10
836.1775638999999
 20
93.94642584000001
 30
0.0
 40
2.0
100
AcDbArc
 50
180.0
 51
270.0
  0
ARC
  5
7C02
330
DF
100
AcDbEntity
  8
JISSEN
100
AcDbCircle
 10
862.1775639
 20
93.94642584000001
 30
0.0
 40
2.0
100
AcDbArc
 50
270.0
 51
0.0
  0
ARC
  5
7C03
330
DF
100
AcDbEntity
  8
JISSEN
100
AcDbCircle
 10
339.4512441141205
 20
93.94642584000001
 30
0.0
 40
2.0
100
AcDbArc
 50
270.0
 51
0.0
  0
ARC
  5
7C04
330
DF
100
AcDbEntity
  8
JISSEN
100
AcDbCircle
 10
313.4512441141205
 20
93.94642584000001
 30
0.0
 40
2.0
100
AcDbArc
 50
180.0
 51
270.0
  0
ARC
  5
7C05
330
DF
100
AcDbEntity
  8
JISSEN
100
AcDbCircle
 10
77.45124410587948
 20
93.94642584000001
 30
0.0
 40
2.0
100
AcDbArc
 50
270.0
 51
0.0
  0
ARC
  5
7C06
330
DF
100
AcDbEntity
  8
JISSEN
100
AcDbCircle
 10
51.45124410587947
 20
93.94642584000001
 30
0.0
 40
2.0
100
AcDbArc
 50
180.0
 51
270.0
  0
DIMENSION
  5
7CF0
330
DF
100
AcDbEntity
  8
SUNPOU
100
AcDbDimension
  2
*D4
 10
871.6775639000001
 20
39.29397834743122
 30
0.0
 11
738.1933849659962
 21
39.29397834743122
 31
0.0
 70
   160
  3
IMCADLT
100
AcDbAlignedDimension
 13
605.6775639
 23
109.44642584
 33
0.0
 14
871.6775639000001
 24
109.44642584
 34
0.0
100
AcDbRotatedDimension
1001
ACAD
1000
DSTYLE
1002
{
1002
}
  0
DIMENSION
  5
7D13
330
DF
100
AcDbEntity
  8
SUNPOU
100
AcDbDimension
  2
*D5
 10
512.6775638999999
 20
39.29397834743122
 30
0.0
 11
559.1775638999999
 21
54.29397834743122
 31
0.0
 70
    32
  3
IMCADLT
100
AcDbAlignedDimension
 13
605.6775639
 23
109.44642584
 33
0.0
 14
512.6775638999999
 24
226.9464258399999
 34
0.0
100
AcDbRotatedDimension
1001
ACAD
1000
DSTYLE
1002
{
1070
   287
1070
     4
1070
    75
1070
     1
1070
   279
1070
     1
1002
}
  0
DIMENSION
  5
7D20
330
DF
100
AcDbEntity
  8
SUNPOU
100
AcDbDimension
  2
*D6
 10
41.95124411412055
 20
39.29397835
 30
0.0
 11
202.5380074831196
 21
39.29397835
 31
0.0
 70
   160
  3
IMCADLT
100
AcDbAlignedDimension
 13
348.9512441141205
 23
109.44642584
 33
0.0
 14
41.95124411412055
 24
109.44642584
 34
0.0
100
AcDbRotatedDimension
  0
DIMENSION
  5
7D39
330
DF
100
AcDbEntity
  8
SUNPOU
100
AcDbDimension
  2
*D7
 10
-45.02609406292822
 20
226.94642584
 30
0.0
 11
-45.02609406292822
 21
158.2697295075945
 31
0.0
 70
   160
  3
IMCADLT
100
AcDbAlignedDimension
 13
51.45124410587947
 23
91.94642584
 33
0.0
 14
135.45124411
 24
226.94642584
 34
0.0
 50
90.0
100
AcDbRotatedDimension
  0
ARC
  5
7D3A
330
DF
100
AcDbEntity
  8
JISSEN
100
AcDbCircle
 10
145.45124411
 20
351.9464258399999
 30
0.0
 40
10.0
100
AcDbArc
 50
90.0
 51
180.0
  0
ARC
  5
7D3B
330
DF
100
AcDbEntity
  8
JISSEN
100
AcDbCircle
 10
245.45124411
 20
351.9464258399999
 30
0.0
 40
10.0
100
AcDbArc
 50
0.0
 51
90.0
  0
DIMENSION
  5
7D55
330
DF
100
AcDbEntity
  8
SUNPOU
100
AcDbDimension
  2
*D9
 10
-75.02609406292819
 20
366.94642584
 30
0.0
 11
-90.02609406292821
 21
229.44642584
 31
0.0
 70
    32
  3
IMCADLT
100
AcDbAlignedDimension
 13
51.45124410587947
 23
91.94642584
 33
0.0
 14
54.45124410587961
 24
366.94642584
 34
0.0
 50
90.0
100
AcDbRotatedDimension
  0
DIMENSION
  5
7D62
330
DF
100
AcDbEntity
  8
SUNPOU
100
AcDbDimension
  2
*D10
 10
-105.0260940629281
 20
561.9464258399998
 30
0.0
 11
-120.0260940629282
 21
326.9464258399999
 31
0.0
 70
    32
  3
IMCADLT
100
AcDbAlignedDimension
 13
51.45124410587947
 23
91.94642584
 33
0.0
 14
75.45124411
 24
561.9464258399998
 34
0.0
 50
90.0
100
AcDbRotatedDimension
  0
DIMENSION
  5
7D6F
330
DF
100
AcDbEntity
  8
SUNPOU
100
AcDbDimension
  2
*D11
 10
315.45124411
 20
604.172274716952
 30
0.0
 11
195.45124411
 21
604.172274716952
 31
0.0
 70
   160
  1
%%c<>
  3
IMCADLT
100
AcDbAlignedDimension
 13
75.45124411
 23
561.9464258399998
 33
0.0
 14
315.45124411
 24
561.9464258399999
 34
0.0
100
AcDbRotatedDimension
  0
DIMENSION
  5
7D92
330
DF
100
AcDbEntity
  8
SUNPOU
100
AcDbDimension
  2
*D12
 10
871.6775639000001
 20
602.3436176065915
 30
0.0
 11
686.9080801001983
 21
602.3436176065915
 31
0.0
 70
   160
  1
365
  3
IMCADLT
100
AcDbAlignedDimension
 13
512.6775638999999
 23
311.94642584
 33
0.0
 14
871.6775639000001
 24
306.94642584
 34
0.0
100
AcDbRotatedDimension
  0
DIMENSION
  5
7DAA
330
DF
100
AcDbEntity
  8
SUNPOU
100
AcDbDimension
  2
*D13
 10
13.45124411000002
 20
648.1428874892867
 30
0.0
 11
195.4935309636339
 21
648.1428874892867
 31
0.0
 70
   160
  3
IMCADLT
100
AcDbAlignedDimension
 13
377.45124411
 23
311.94642584
 33
0.0
 14
13.45124411
 24
311.94642584
 34
0.0
100
AcDbRotatedDimension
  0
DIMENSION
  5
7DCE
330
DF
100
AcDbEntity
  8
SUNPOU
100
AcDbDimension
  2
*D14
 10
292.90957745
 20
1096.491079608273
 30
0.0
 11
321.6436877145351
 21
1096.491079608273
 31
0.0
 70
   160
  3
IMCADLT
100
AcDbAlignedDimension
 13
347.90957745
 23
1042.867009923906
 33
0.0
 14
292.90957745
 24
1052.867009923906
 34
0.0
100
AcDbRotatedDimension
  0
INSERT
  5
7DCF
330
DF
100
AcDbEntity
  8
SUNPOU
100
AcDbBlockReference
  2
ARROW
 10
292.90957745
 20
1052.867009923906
 30
0.0
 41
15.0
 42
15.0
 43
15.0
 50
330.9868440310144
  0
LINE
  5
7DD0
330
DF
100
AcDbEntity
  8
SUNPOU
100
AcDbLine
 10
279.7919519819721
 20
1060.142166422603
 30
0.0
 11
212.8607128914842
 21
1097.262851124411
 31
0.0
  0
LINE
  5
7DD1
330
DF
100
AcDbEntity
  8
SUNPOU
100
AcDbLine
 10
212.8607128914842
 20
1097.262851124411
 30
0.0
 11
197.8607128914841
 21
1097.262851124411
 31
0.0
  0
LINE
  5
7DD2
330
DF
100
AcDbEntity
  8
SUNPOU
100
AcDbLine
 10
197.8607128914841
 20
1097.262851124411
 30
0.0
 11
-8.639287108515731
 21
1097.262851124411
 31
0.0
  0
MTEXT
  5
7DD3
330
DF
100
AcDbEntity
  8
SUNPOU
100
AcDbMText
 10
190.3607128914842
 20
1112.262851124411
 30
0.0
 40
15.0
 41
0.0
 71
     6
 72
     1
  1
\A1;電源コード長さ約2200
1001
ACAD
1000
MTEXTBEGIN
1070
    73
1070
     1
1070
    44
1040
1.0
1070
    74
1070
     0
1000
MTEXTEND
  0
MTEXT
  5
7DD4
330
DF
100
AcDbEntity
  8
SUNPOU
100
AcDbMText
 10
190.3607128914842
 20
1079.884582015814
 30
0.0
 40
15.0
 41
0.0
 71
     6
 72
     1
  1
立ち上がり30
1001
ACAD
1000
MTEXTBEGIN
1070
    73
1070
     1
1070
    44
1040
1.0
1070
    74
1070
     0
1000
MTEXTEND
  0
VIEWPORT
  5
4AEA
330
DC
100
AcDbEntity
 67
     1
  8
0
100
AcDbViewport
 10
213.0012171709198
 20
148.5313735999884
 30
0.0
 40
582.4492118540043
 41
314.8539996639665
 68
     1
 69
     1
1001
ACAD
1000
MVIEW
1002
{
1070
    16
1010
0.0
1020
0.0
1030
0.0
1010
0.0
1020
0.0
1030
1.0
1040
0.0
1040
314.8539996639665
1040
213.0012171709198
1040
148.5313735999884
1040
50.0
1040
0.0
1040
0.0
1070
     0
1070
   500
1070
     1
1070
     1
1070
     0
1070
     0
1070
     0
1070
     0
1040
0.0
1040
0.0
1040
0.0
1040
1.0
1040
1.0
1040
10.0
1040
10.0
1070
     0
1002
{
1003
HIDDEN_L
1002
}
1002
}
  0
VIEWPORT
  5
7344
330
DC
100
AcDbEntity
 67
     1
  8
HIDDEN_L
100
AcDbViewport
 10
209.9999991599999
 20
148.4999999999999
 30
0.0
 40
419.9999983199999
 41
296.9999999999999
 68
     2
 69
     2
1001
ACAD
1000
MVIEW
1002
{
1070
    16
1010
0.0
1020
0.0
1030
0.0
1010
0.0
1020
0.0
1030
1.0
1040
0.0
1040
1485.00000231564
1040
890.8591746265114
1040
547.9508819968915
1040
50.0
1040
0.0
1040
0.0
1070
     0
1070
   500
1070
     1
1070
     0
1070
     0
1070
     0
1070
     0
1070
     0
1040
0.0
1040
0.0
1040
0.0
1040
1.0
1040
1.0
1040
10.0
1040
10.0
1070
     0
1002
{
1003
SUNPOU2
1002
}
1002
}
  0
INSERT
  5
7CE0
330
DC
100
AcDbEntity
 67
     1
  8
WAKU
100
AcDbBlockReference
  2
S3
 10
0.0
 20
0.0
 30
0.0
  0
TEXT
  5
7DAF
330
DC
100
AcDbEntity
 67
     1
  8
SUNPOU
100
AcDbText
 10
297.6044994787781
 20
44.9535053885304
 30
0.0
 40
3.0
  1
バーチカルフードカッター
  7
K
100
AcDbText
  0
LINE
  5
7DB0
330
DC
100
AcDbEntity
 67
     1
  8
SUNPOU
100
AcDbLine
 10
366.0374044057103
 20
50.2855956410101
 30
0.0
 11
377.3582234947508
 21
50.2855956410101
 31
0.0
  0
LINE
  5
7DB1
330
DC
100
AcDbEntity
 67
     1
  8
SUNPOU
100
AcDbLine
 10
366.0374044057103
 20
42.2855956410101
 30
0.0
 11
377.3582234947508
 21
42.2855956410101
 31
0.0
  0
TEXT
  5
7DB2
330
DC
100
AcDbEntity
 67
     1
  8
SUNPOU
100
AcDbText
 10
358.1844003969034
 20
33.57426923361833
 30
0.0
 40
3.0
  1
1/5
  7
K
100
AcDbText
  0
TEXT
  5
7DB4
330
DC
100
AcDbEntity
 67
     1
  8
SUNPOU
100
AcDbText
 10
338.8972934109984
 20
23.63732854939644
 30
0.0
 40
3.0
  1
CV-220A
  7
K
100
AcDbText
  0
MTEXT
  5
7DB9
330
DC
100
AcDbEntity
 67
     1
  8
SUNPOU
100
AcDbMText
 10
275.479271727418
 20
244.3369066279937
 30
0.0
 40
3.0
 41
0.0
 71
     1
 72
     1
  3
\fＭＳ 明朝|b0|i0|c128|p17;\L　仕様　\P\l定格電圧：100V\P定格周波数：50/60Hz\P定格消費電力：320/350W（50/60Hz）\P定格時間：30分\P重量：19kg\Pモーター出力：コンデンサラン200W\P投入口直径：φ140mm\P付属品：粗さ調節板（１セット）\P　　　：投入口フタ\P切
  1
削能力：3～13kg/分
1001
ACAD
1000
MTEXTBEGIN
1070
    73
1070
     1
1070
    44
1040
1.0
1070
    74
1070
     0
1000
MTEXTEND
  0
TEXT
  5
7DBB
330
DC
100
AcDbEntity
 67
     1
  8
SUNPOU
100
AcDbText
 10
48.88481079653582
 20
275.5546869617405
 30
0.0
 40
3.0
  1
CV-220A
 50
180.0
  7
K
100
AcDbText
  0
ENDSEC
  0
SECTION
  2
OBJECTS
  0
DICTIONARY
  5
D3
330
0
100
AcDbDictionary
  3
ACAD_GROUP
350
D4
  3
ACAD_MLINESTYLE
350
D5
  3
ACDBVARIABLEDICTIONARY
350
59C7
  3
CONTENTDICTIONARY
350
50D5
  3
ACAD_PLOTSTYLENAME
350
7DD9
  3
ACAD_LAYOUT
350
7DDB
  3
ACAD_PLOTSETTINGS
350
7DDC
  3
ACDBHEADERROUNDTRIPXREC
350
7DE4
  0
DICTIONARY
  5
7E07
330
DF
100
AcDbDictionary
280
     1
  3
ACAD_LAYOUTSELFREF
360
7E08
  0
DICTIONARY
  5
7E05
330
DC
100
AcDbDictionary
280
     1
  3
ACAD_LAYOUTSELFREF
360
7E06
  0
DICTIONARY
  5
D4
102
{ACAD_REACTORS
330
D3
102
}
330
D3
100
AcDbDictionary
  0
DICTIONARY
  5
D5
102
{ACAD_REACTORS
330
D3
102
}
330
D3
100
AcDbDictionary
  3
STANDARD
350
E2
  0
DICTIONARY
  5
59C7
102
{ACAD_REACTORS
330
D3
102
}
330
D3
100
AcDbDictionary
  3
SORTENTS
350
59C8
  0
DICTIONARY
  5
50D5
102
{ACAD_REACTORS
330
D3
102
}
330
D3
100
AcDbDictionary
  0
ACDBDICTIONARYWDFLT
  5
7DD9
102
{ACAD_REACTORS
330
D3
102
}
330
D3
100
AcDbDictionary
281
     1
  3
Normal
350
7DDA
100
AcDbDictionaryWithDefault
340
7DDA
  0
DICTIONARY
  5
7DDB
102
{ACAD_REACTORS
330
D3
102
}
330
D3
100
AcDbDictionary
  0
DICTIONARY
  5
7DDC
102
{ACAD_REACTORS
330
D3
102
}
330
D3
100
AcDbDictionary
  0
DICTIONARY
  5
7DE4
102
{ACAD_REACTORS
330
D3
102
}
330
D3
100
AcDbDictionary
  3
TSTACKALIGN
350
7DE5
  3
TSTACKSIZE
350
7DE6
  3
HYPERLINKBASE
350
7DE7
  3
STYLESHEET
350
7DE8
  3
LAYOUTDICT
350
7DE9
  3
PLOTSETDICT
350
7DEA
  3
PLOTSTYLNAMDICT
350
7DEB
  3
LWETCUNION
350
7DEC
  3
INSUNITS
350
7DED
  3
CEPSNTYPE
350
7DEE
  3
FINGERPRINTGUID
350
7DEF
  3
VERSIONGUID
350
7DF0
  3
PSVPSCALE
350
7DF1
  3
DIMSTYLEDATA
350
7DF2
  3
PUCSORTHOREF
350
7DF3
  3
PUCSORTHOVIEW
350
7DF4
  3
PUCSBASE
350
7DF5
  3
PUCSORGTOP
350
7DF6
  3
PUCSORGBOTTOM
350
7DF7
  3
PUCSORGLEFT
350
7DF8
  3
PUCSORGRIGHT
350
7DF9
  3
PUCSORGFRONT
350
7DFA
  3
PUCSORGBACK
350
7DFB
  3
UCSORTHOREF
350
7DFC
  3
UCSORTHOVIEW
350
7DFD
  3
UCSBASE
350
7DFE
  3
UCSORGTOP
350
7DFF
  3
UCSORGBOTTOM
350
7E00
  3
UCSORGLEFT
350
7E01
  3
UCSORGRIGHT
350
7E02
  3
UCSORGFRONT
350
7E03
  3
UCSORGBACK
350
7E04
  0
XRECORD
  5
7E08
102
{ACAD_REACTORS
330
7E07
102
}
330
7E07
100
AcDbXrecord
340
DF
  0
XRECORD
  5
7E06
102
{ACAD_REACTORS
330
7E05
102
}
330
7E05
100
AcDbXrecord
340
DC
  0
MLINESTYLE
  5
E2
102
{ACAD_REACTORS
330
D5
102
}
330
D5
100
AcDbMlineStyle
  2
STANDARD
 70
     0
  3

 62
     0
 51
90.0
 52
90.0
 71
     2
 49
0.5
 62
   256
  6
BYLAYER
 49
-0.5
 62
   256
  6
BYLAYER
  0
DICTIONARYVAR
  5
59C8
102
{ACAD_REACTORS
330
59C7
102
}
330
59C7
100
DictionaryVariables
280
     0
  1
96
  0
ACDBPLACEHOLDER
  5
7DDA
102
{ACAD_REACTORS
330
7DD9
102
}
330
7DD9
100
AcDbPlaceHolder
280
     0
  0
XRECORD
  5
7DE5
102
{ACAD_REACTORS
330
7DE4
102
}
330
7DE4
100
AcDbXrecord
 90
        1
  0
XRECORD
  5
7DE6
102
{ACAD_REACTORS
330
7DE4
102
}
330
7DE4
100
AcDbXrecord
 90
       70
  0
XRECORD
  5
7DE7
102
{ACAD_REACTORS
330
7DE4
102
}
330
7DE4
100
AcDbXrecord
  1

  0
XRECORD
  5
7DE8
102
{ACAD_REACTORS
330
7DE4
102
}
330
7DE4
100
AcDbXrecord
  1

  0
XRECORD
  5
7DE9
102
{ACAD_REACTORS
330
7DE4
102
}
330
7DE4
100
AcDbXrecord
340
7DDB
  0
XRECORD
  5
7DEA
102
{ACAD_REACTORS
330
7DE4
102
}
330
7DE4
100
AcDbXrecord
340
7DDC
  0
XRECORD
  5
7DEB
102
{ACAD_REACTORS
330
7DE4
102
}
330
7DE4
100
AcDbXrecord
340
7DD9
  0
XRECORD
  5
7DEC
102
{ACAD_REACTORS
330
7DE4
102
}
330
7DE4
100
AcDbXrecord
 90
    14877
  0
XRECORD
  5
7DED
102
{ACAD_REACTORS
330
7DE4
102
}
330
7DE4
100
AcDbXrecord
 90
        0
  0
XRECORD
  5
7DEE
102
{ACAD_REACTORS
330
7DE4
102
}
330
7DE4
100
AcDbXrecord
 90
        0
  0
XRECORD
  5
7DEF
102
{ACAD_REACTORS
330
7DE4
102
}
330
7DE4
100
AcDbXrecord
  1
{85E2D911-E487-4291-B549-C9479E6F3605}
  0
XRECORD
  5
7DF0
102
{ACAD_REACTORS
330
7DE4
102
}
330
7DE4
100
AcDbXrecord
  1
{6A0F5247-AA60-423F-8335-815363EDA538}
  0
XRECORD
  5
7DF1
102
{ACAD_REACTORS
330
7DE4
102
}
330
7DE4
100
AcDbXrecord
 40
0.0
  0
XRECORD
  5
7DF2
102
{ACAD_REACTORS
330
7DE4
102
}
330
7DE4
100
AcDbXrecord
1000
DSTYLE
1002
{
1070
   341
340
E3
1070
   342
340
E3
1070
   343
340
E3
1070
   344
340
E3
1002
}
  0
XRECORD
  5
7DF3
102
{ACAD_REACTORS
330
7DE4
102
}
330
7DE4
100
AcDbXrecord
340
0
  0
XRECORD
  5
7DF4
102
{ACAD_REACTORS
330
7DE4
102
}
330
7DE4
100
AcDbXrecord
 70
     0
  0
XRECORD
  5
7DF5
102
{ACAD_REACTORS
330
7DE4
102
}
330
7DE4
100
AcDbXrecord
340
0
  0
XRECORD
  5
7DF6
102
{ACAD_REACTORS
330
7DE4
102
}
330
7DE4
100
AcDbXrecord
 10
0.0
 20
0.0
 30
0.0
  0
XRECORD
  5
7DF7
102
{ACAD_REACTORS
330
7DE4
102
}
330
7DE4
100
AcDbXrecord
 10
0.0
 20
0.0
 30
0.0
  0
XRECORD
  5
7DF8
102
{ACAD_REACTORS
330
7DE4
102
}
330
7DE4
100
AcDbXrecord
 10
0.0
 20
0.0
 30
0.0
  0
XRECORD
  5
7DF9
102
{ACAD_REACTORS
330
7DE4
102
}
330
7DE4
100
AcDbXrecord
 10
0.0
 20
0.0
 30
0.0
  0
XRECORD
  5
7DFA
102
{ACAD_REACTORS
330
7DE4
102
}
330
7DE4
100
AcDbXrecord
 10
0.0
 20
0.0
 30
0.0
  0
XRECORD
  5
7DFB
102
{ACAD_REACTORS
330
7DE4
102
}
330
7DE4
100
AcDbXrecord
 10
0.0
 20
0.0
 30
0.0
  0
XRECORD
  5
7DFC
102
{ACAD_REACTORS
330
7DE4
102
}
330
7DE4
100
AcDbXrecord
340
0
  0
XRECORD
  5
7DFD
102
{ACAD_REACTORS
330
7DE4
102
}
330
7DE4
100
AcDbXrecord
 70
     0
  0
XRECORD
  5
7DFE
102
{ACAD_REACTORS
330
7DE4
102
}
330
7DE4
100
AcDbXrecord
340
0
  0
XRECORD
  5
7DFF
102
{ACAD_REACTORS
330
7DE4
102
}
330
7DE4
100
AcDbXrecord
 10
0.0
 20
0.0
 30
0.0
  0
XRECORD
  5
7E00
102
{ACAD_REACTORS
330
7DE4
102
}
330
7DE4
100
AcDbXrecord
 10
0.0
 20
0.0
 30
0.0
  0
XRECORD
  5
7E01
102
{ACAD_REACTORS
330
7DE4
102
}
330
7DE4
100
AcDbXrecord
 10
0.0
 20
0.0
 30
0.0
  0
XRECORD
  5
7E02
102
{ACAD_REACTORS
330
7DE4
102
}
330
7DE4
100
AcDbXrecord
 10
0.0
 20
0.0
 30
0.0
  0
XRECORD
  5
7E03
102
{ACAD_REACTORS
330
7DE4
102
}
330
7DE4
100
AcDbXrecord
 10
0.0
 20
0.0
 30
0.0
  0
XRECORD
  5
7E04
102
{ACAD_REACTORS
330
7DE4
102
}
330
7DE4
100
AcDbXrecord
 10
0.0
 20
0.0
 30
0.0
  0
ENDSEC
  0
EOF
